  0
SECTION
  2
HEADER
  9
$ACADVER
  1
AC1018
  9
$ACADMAINTVER
 70
   104
  9
$DWGCODEPAGE
  3
ANSI_936
  9
$INSBASE
 10
9096.08221068405
 20
1846.761700379264
 30
0.0
  9
$EXTMIN
 10
637.8112382095132
 20
1904.278067076433
 30
-0.0000000000112498
  9
$EXTMAX
 10
10426.22643165246
 20
6054.627076587669
 30
0.0000000000002956
  9
$LIMMIN
 10
0.0
 20
0.0
  9
$LIMMAX
 10
99999.0
 20
99999.0
  9
$ORTHOMODE
 70
     0
  9
$REGENMODE
 70
     1
  9
$FILLMODE
 70
     1
  9
$QTEXTMODE
 70
     0
  9
$MIRRTEXT
 70
     0
  9
$LTSCALE
 40
1.0
  9
$ATTMODE
 70
     1
  9
$TEXTSIZE
 40
5.0
  9
$TRACEWID
 40
0.05
  9
$TEXTSTYLE
  7
ROMANC
  9
$CLAYER
  8
0
  9
$CELTYPE
  6
ByLayer
  9
$CECOLOR
 62
   256
  9
$CELTSCALE
 40
0.05
  9
$DISPSILH
 70
     0
  9
$DIMSCALE
 40
0.5
  9
$DIMASZ
 40
2.0
  9
$DIMEXO
 40
0.4997500000000001
  9
$DIMDLI
 40
0.0
  9
$DIMRND
 40
0.0
  9
$DIMDLE
 40
0.0
  9
$DIMEXE
 40
0.4997500000000001
  9
$DIMTP
 40
0.1
  9
$DIMTM
 40
0.1
  9
$DIMTXT
 40
3.5
  9
$DIMCEN
 40
0.0
  9
$DIMTSZ
 40
0.0
  9
$DIMTOL
 70
     0
  9
$DIMLIM
 70
     0
  9
$DIMTIH
 70
     0
  9
$DIMTOH
 70
     0
  9
$DIMSE1
 70
     0
  9
$DIMSE2
 70
     0
  9
$DIMTAD
 70
     0
  9
$DIMZIN
 70
     8
  9
$DIMBLK
  1
ClosedBlank
  9
$DIMASO
 70
     1
  9
$DIMSHO
 70
     1
  9
$DIMPOST
  1

  9
$DIMAPOST
  1

  9
$DIMALT
 70
     0
  9
$DIMALTD
 70
     2
  9
$DIMALTF
 40
25.4
  9
$DIMLFAC
 40
1.0
  9
$DIMTOFL
 70
     0
  9
$DIMTVP
 40
0.0
  9
$DIMTIX
 70
     0
  9
$DIMSOXD
 70
     0
  9
$DIMSAH
 70
     0
  9
$DIMBLK1
  1

  9
$DIMBLK2
  1

  9
$DIMSTYLE
  2
字高-7-7
  9
$DIMCLRD
 70
     7
  9
$DIMCLRE
 70
     7
  9
$DIMCLRT
 70
     7
  9
$DIMTFAC
 40
1.0
  9
$DIMGAP
 40
-0.4997500000000001
  9
$DIMJUST
 70
     0
  9
$DIMSD1
 70
     0
  9
$DIMSD2
 70
     0
  9
$DIMTOLJ
 70
     1
  9
$DIMTZIN
 70
     0
  9
$DIMALTZ
 70
     0
  9
$DIMALTTZ
 70
     0
  9
$DIMUPT
 70
     0
  9
$DIMDEC
 70
     2
  9
$DIMTDEC
 70
     2
  9
$DIMALTU
 70
     2
  9
$DIMALTTD
 70
     2
  9
$DIMTXSTY
  7
尺寸
  9
$DIMAUNIT
 70
     0
  9
$DIMADEC
 70
     2
  9
$DIMALTRND
 40
0.0
  9
$DIMAZIN
 70
     2
  9
$DIMDSEP
 70
    46
  9
$DIMATFIT
 70
     0
  9
$DIMFRAC
 70
     0
  9
$DIMLDRBLK
  1
2011.2.2.2.2
  9
$DIMLUNIT
 70
     2
  9
$DIMLWD
 70
    25
  9
$DIMLWE
 70
    25
  9
$DIMTMOVE
 70
     0
  9
$LUNITS
 70
     2
  9
$LUPREC
 70
     2
  9
$SKETCHINC
 40
0.1
  9
$FILLETRAD
 40
3.0
  9
$AUNITS
 70
     0
  9
$AUPREC
 70
     1
  9
$MENU
  1
.
  9
$ELEVATION
 40
0.0
  9
$PELEVATION
 40
0.0
  9
$THICKNESS
 40
0.0
  9
$LIMCHECK
 70
     0
  9
$CHAMFERA
 40
1.0
  9
$CHAMFERB
 40
1.0
  9
$CHAMFERC
 40
0.0
  9
$CHAMFERD
 40
0.0
  9
$SKPOLY
 70
     0
  9
$TDCREATE
 40
2455793.337963507
  9
$TDUCREATE
 40
2455793.004630174
  9
$TDUPDATE
 40
2458961.631027026
  9
$TDUUPDATE
 40
2458961.297693692
  9
$TDINDWG
 40
49.9068552315
  9
$TDUSRTIMER
 40
49.9068549190
  9
$USRTIMER
 70
     1
  9
$ANGBASE
 50
0.0
  9
$ANGDIR
 70
     0
  9
$PDMODE
 70
     0
  9
$PDSIZE
 40
0.0
  9
$PLINEWID
 40
0.0
  9
$SPLFRAME
 70
     0
  9
$SPLINETYPE
 70
     6
  9
$SPLINESEGS
 70
     8
  9
$HANDSEED
  5
460
  9
$SURFTAB1
 70
     6
  9
$SURFTAB2
 70
     6
  9
$SURFTYPE
 70
     6
  9
$SURFU
 70
     6
  9
$SURFV
 70
     6
  9
$UCSBASE
  2

  9
$UCSNAME
  2

  9
$UCSORG
 10
0.0
 20
0.0
 30
0.0
  9
$UCSXDIR
 10
1.0
 20
0.0
 30
0.0
  9
$UCSYDIR
 10
0.0
 20
1.0
 30
0.0
  9
$UCSORTHOREF
  2

  9
$UCSORTHOVIEW
 70
     0
  9
$UCSORGTOP
 10
0.0
 20
0.0
 30
0.0
  9
$UCSORGBOTTOM
 10
0.0
 20
0.0
 30
0.0
  9
$UCSORGLEFT
 10
0.0
 20
0.0
 30
0.0
  9
$UCSORGRIGHT
 10
0.0
 20
0.0
 30
0.0
  9
$UCSORGFRONT
 10
0.0
 20
0.0
 30
0.0
  9
$UCSORGBACK
 10
0.0
 20
0.0
 30
0.0
  9
$PUCSBASE
  2

  9
$PUCSNAME
  2

  9
$PUCSORG
 10
0.0
 20
0.0
 30
0.0
  9
$PUCSXDIR
 10
1.0
 20
0.0
 30
0.0
  9
$PUCSYDIR
 10
0.0
 20
1.0
 30
0.0
  9
$PUCSORTHOREF
  2

  9
$PUCSORTHOVIEW
 70
     0
  9
$PUCSORGTOP
 10
0.0
 20
0.0
 30
0.0
  9
$PUCSORGBOTTOM
 10
0.0
 20
0.0
 30
0.0
  9
$PUCSORGLEFT
 10
0.0
 20
0.0
 30
0.0
  9
$PUCSORGRIGHT
 10
0.0
 20
0.0
 30
0.0
  9
$PUCSORGFRONT
 10
0.0
 20
0.0
 30
0.0
  9
$PUCSORGBACK
 10
0.0
 20
0.0
 30
0.0
  9
$USERI1
 70
     0
  9
$USERI2
 70
     0
  9
$USERI3
 70
     0
  9
$USERI4
 70
     0
  9
$USERI5
 70
     0
  9
$USERR1
 40
0.0
  9
$USERR2
 40
0.0
  9
$USERR3
 40
0.0
  9
$USERR4
 40
0.0
  9
$USERR5
 40
2.5
  9
$WORLDVIEW
 70
     1
  9
$SHADEDGE
 70
     3
  9
$SHADEDIF
 70
    70
  9
$TILEMODE
 70
     1
  9
$MAXACTVP
 70
    64
  9
$PINSBASE
 10
0.0
 20
0.0
 30
0.0
  9
$PLIMCHECK
 70
     0
  9
$PEXTMIN
 10
25.69999999999999
 20
19.5
 30
0.0
  9
$PEXTMAX
 10
231.3
 20
175.5
 30
0.0
  9
$PLIMMIN
 10
-20.0
 20
-7.5
  9
$PLIMMAX
 10
277.0
 20
202.5
  9
$UNITMODE
 70
     0
  9
$VISRETAIN
 70
     1
  9
$PLINEGEN
 70
     0
  9
$PSLTSCALE
 70
     1
  9
$TREEDEPTH
 70
  3020
  9
$CMLSTYLE
  2
Standard
  9
$CMLJUST
 70
     0
  9
$CMLSCALE
 40
1.0
  9
$PROXYGRAPHICS
 70
     1
  9
$MEASUREMENT
 70
     1
  9
$CELWEIGHT
370
    -1
  9
$ENDCAPS
280
     0
  9
$JOINSTYLE
280
     0
  9
$LWDISPLAY
290
     0
  9
$INSUNITS
 70
     4
  9
$HYPERLINKBASE
  1

  9
$STYLESHEET
  1

  9
$XEDIT
290
     1
  9
$CEPSNTYPE
380
     0
  9
$PSTYLEMODE
290
     1
  9
$FINGERPRINTGUID
  2
{D39CF134-8162-414B-96C4-FDDF3CC8FE17}
  9
$VERSIONGUID
  2
{D0DF1847-6604-4212-B727-15FE9ECA4294}
  9
$EXTNAMES
290
     1
  9
$PSVPSCALE
 40
1.0
  9
$OLESTARTUP
290
     0
  9
$SORTENTS
280
   127
  9
$INDEXCTL
280
     0
  9
$HIDETEXT
280
     1
  9
$XCLIPFRAME
290
     0
  9
$HALOGAP
280
     0
  9
$OBSCOLOR
 70
   257
  9
$OBSLTYPE
280
     0
  9
$INTERSECTIONDISPLAY
280
     0
  9
$INTERSECTIONCOLOR
 70
   257
  9
$DIMASSOC
280
     2
  9
$PROJECTNAME
  1

  0
ENDSEC
  0
SECTION
  2
CLASSES
  0
CLASS
  1
ACDBDICTIONARYWDFLT
  2
AcDbDictionaryWithDefault
  3
ObjectDBX Classes
 90
        0
 91
        1
280
     0
281
     0
  0
CLASS
  1
DICTIONARYVAR
  2
AcDbDictionaryVar
  3
ObjectDBX Classes
 90
        0
 91
        1
280
     0
281
     0
  0
CLASS
  1
TABLESTYLE
  2
AcDbTableStyle
  3
ObjectDBX Classes
 90
     4095
 91
        1
280
     0
281
     0
  0
CLASS
  1
VLO-VL
  2
vlo_VL
  3
VL|AutoLISP based application
 90
      129
 91
        0
280
     1
281
     0
  0
CLASS
  1
DIMASSOC
  2
AcDbDimAssoc
  3
"AcDbDimAssoc|Product Desc:     AcDim ARX App For Dimension|Company:          Autodesk, Inc.|WEB Address:      www.autodesk.com"
 90
        0
 91
        9
280
     0
281
     0
  0
CLASS
  1
SORTENTSTABLE
  2
AcDbSortentsTable
  3
ObjectDBX Classes
 90
        0
 91
        4
280
     0
281
     0
  0
CLASS
  1
ACAD_EVALUATION_GRAPH
  2
AcDbEvalGraph
  3
ObjectDBX Classes
 90
     1153
 91
        0
280
     0
281
     0
  0
CLASS
  1
ACAECUSTOBJ
  2
AcAeEditorObj
  3
AcAeEditorObj
 90
     1024
 91
        0
280
     1
281
     0
  0
CLASS
  1
ACDB_DYNAMICBLOCKPURGEPREVENTER_VERSION
  2
AcDbDynamicBlockPurgePreventer
  3
ObjectDBX Classes
 90
     1153
 91
        0
280
     0
281
     0
  0
CLASS
  1
MATERIAL
  2
AcDbMaterial
  3
ObjectDBX Classes
 90
     1024
 91
        3
280
     0
281
     0
  0
CLASS
  1
ACDBPLACEHOLDER
  2
AcDbPlaceHolder
  3
ObjectDBX Classes
 90
        0
 91
        1
280
     0
281
     0
  0
CLASS
  1
LAYOUT
  2
AcDbLayout
  3
ObjectDBX Classes
 90
        0
 91
        2
280
     0
281
     0
  0
CLASS
  1
VISUALSTYLE
  2
AcDbVisualStyle
  3
ObjectDBX Classes
 90
     4095
 91
        3
280
     0
281
     0
  0
CLASS
  1
SOLID_BACKGROUND
  2
AcDbSolidBackground
  3
SCENEOE
 90
     4095
 91
        0
280
     0
281
     0
  0
CLASS
  1
NPOCOLLECTION
  2
AcDbImpNonPersistentObjectsCollection
  3
ObjectDBX Classes
 90
     1153
 91
        0
280
     0
281
     0
  0
CLASS
  1
EXACXREFPANELOBJECT
  2
ExAcXREFPanelObject
  3
EXAC_ESW
 90
     1025
 91
        0
280
     1
281
     0
  0
CLASS
  1
PLOTSETTINGS
  2
AcDbPlotSettings
  3
ObjectDBX Classes
 90
        0
 91
        0
280
     0
281
     0
  0
CLASS
  1
SCALE
  2
AcDbScale
  3
ObjectDBX Classes
 90
     1153
 91
        0
280
     1
281
     0
  0
CLASS
  1
MLEADERSTYLE
  2
AcDbMLeaderStyle
  3
ACDB_MLEADERSTYLE_CLASS
 90
     4095
 91
        0
280
     1
281
     0
  0
CLASS
  1
CELLSTYLEMAP
  2
AcDbCellStyleMap
  3
ObjectDBX Classes
 90
     1152
 91
        3
280
     1
281
     0
  0
ENDSEC
  0
SECTION
  2
TABLES
  0
TABLE
  2
VPORT
  5
2F
102
{ACAD_XDICTIONARY
360
35
102
}
330
0
100
AcDbSymbolTable
 70
     1
  0
VPORT
  5
30
330
2F
100
AcDbSymbolTableRecord
100
AcDbViewportTableRecord
  2
*Active
 70
     0
 10
0.0
 20
0.0
 11
1.0
 21
1.0
 12
7587.793466558034
 22
6126.30225596812
 13
0.0
 23
0.0
 14
0.5
 24
0.5
 15
0.5
 25
0.5
 16
0.0
 26
0.0
 36
93.77892922711945
 17
1358.531675333431
 27
-4166.325233233335
 37
0.0
 40
1065.464758249334
 41
1.782798833819241
 42
50.0
 43
0.0
 44
0.0
 50
0.0
 51
0.0
 71
     0
 72
  1000
 73
     1
 74
     3
 75
     0
 76
     0
 77
     0
 78
     0
281
     0
 65
     1
110
0.0
120
0.0
130
0.0
111
1.0
121
0.0
131
0.0
112
0.0
122
1.0
132
0.0
 79
     0
146
0.0
  0
ENDTAB
  0
TABLE
  2
LTYPE
  5
2A
330
0
100
AcDbSymbolTable
 70
     3
  0
LTYPE
  5
2B
330
2A
100
AcDbSymbolTableRecord
100
AcDbLinetypeTableRecord
  2
ByBlock
 70
     0
  3

 72
    65
 73
     0
 40
0.0
  0
LTYPE
  5
2C
330
2A
100
AcDbSymbolTableRecord
100
AcDbLinetypeTableRecord
  2
ByLayer
 70
     0
  3

 72
    65
 73
     0
 40
0.0
  0
LTYPE
  5
16
330
2A
100
AcDbSymbolTableRecord
100
AcDbLinetypeTableRecord
  2
Continuous
 70
     0
  3
Solid line
 72
    65
 73
     0
 40
0.0
  0
LTYPE
  5
127
330
2A
100
AcDbSymbolTableRecord
100
AcDbLinetypeTableRecord
  2
CENTER
 70
     0
  3
Center ____ _ ____ _ ____ _ ____ _ ____ _ ____
 72
    65
 73
     4
 40
50.8
 49
31.75
 74
     0
 49
-6.349999999999998
 74
     0
 49
6.349999999999998
 74
     0
 49
-6.349999999999998
 74
     0
  0
LTYPE
  5
1E8
330
2A
100
AcDbSymbolTableRecord
100
AcDbLinetypeTableRecord
  2
CENTER2
 70
     0
  3
Center (.5x) ___ _ ___ _ ___ _ ___ _ ___ _ ___
 72
    65
 73
     4
 40
28.575
 49
19.05
 74
     0
 49
-3.174999999999998
 74
     0
 49
3.174999999999998
 74
     0
 49
-3.174999999999998
 74
     0
  0
ENDTAB
  0
TABLE
  2
LAYER
  5
21
102
{ACAD_XDICTIONARY
360
22
102
}
330
0
100
AcDbSymbolTable
 70
     5
  0
LAYER
  5
6
102
{ACAD_XDICTIONARY
360
7
102
}
330
21
100
AcDbSymbolTableRecord
100
AcDbLayerTableRecord
  2
0
 70
     0
 62
     7
  6
Continuous
370
    40
390
9
  0
LAYER
  5
13A
330
21
100
AcDbSymbolTableRecord
100
AcDbLayerTableRecord
  2
Defpoints
 70
     0
 62
     7
  6
Continuous
290
     0
370
    30
390
9
  0
LAYER
  5
25A
102
{ACAD_XDICTIONARY
360
25B
102
}
330
21
100
AcDbSymbolTableRecord
100
AcDbLayerTableRecord
  2
dim
 70
     0
 62
    82
  6
Continuous
370
    18
390
9
  0
LAYER
  5
192
102
{ACAD_XDICTIONARY
360
193
102
}
330
21
100
AcDbSymbolTableRecord
100
AcDbLayerTableRecord
  2
hatch
 70
     0
 62
    56
  6
Continuous
370
     9
390
9
  0
LAYER
  5
1DA
330
21
100
AcDbSymbolTableRecord
100
AcDbLayerTableRecord
  2
图层1
 70
     0
 62
     7
  6
Continuous
370
    -3
390
9
  0
ENDTAB
  0
TABLE
  2
STYLE
  5
27
330
0
100
AcDbSymbolTable
 70
     6
  0
STYLE
  5
28
330
27
100
AcDbSymbolTableRecord
100
AcDbTextStyleTableRecord
  2
Standard
 70
     0
 40
0.0
 41
1.0
 50
0.0
 71
     0
 42
0.2
  3

  4

1001
ACAD
1000
SimSun
1071
    34306
  0
STYLE
  5
39
330
27
100
AcDbSymbolTableRecord
100
AcDbTextStyleTableRecord
  2
尺寸
 70
     0
 40
0.0
 41
0.85
 50
0.0
 71
     0
 42
0.2
  3

  4

1001
ACAD
1000
NSimSun
1071
    34353
  0
STYLE
  5
67
330
27
100
AcDbSymbolTableRecord
100
AcDbTextStyleTableRecord
  2
ROMANC
 70
     0
 40
5.0
 41
1.0
 50
0.0
 71
     0
 42
5.0
  3
romans.shx
  4
gbcbig.shx
  0
STYLE
  5
195
330
27
100
AcDbSymbolTableRecord
100
AcDbTextStyleTableRecord
  2
cha1
 70
     0
 40
2.5
 41
1.0
 50
0.0
 71
     0
 42
2.5
  3

  4

1001
ACAD
1000
SimSun
1071
    34306
  0
STYLE
  5
19D
330
27
100
AcDbSymbolTableRecord
100
AcDbTextStyleTableRecord
  2
ISO Proportional
 70
     0
 40
0.0
 41
1.0
 50
0.0
 71
     0
 42
2.5
  3
isocp
  4

  0
STYLE
  5
1EA
330
27
100
AcDbSymbolTableRecord
100
AcDbTextStyleTableRecord
  2
ROMANS
 70
     0
 40
0.0
 41
1.0
 50
0.0
 71
     0
 42
2.5
  3
romans.shx
  4

  0
ENDTAB
  0
TABLE
  2
VIEW
  5
2D
330
0
100
AcDbSymbolTable
 70
     0
  0
ENDTAB
  0
TABLE
  2
UCS
  5
2E
330
0
100
AcDbSymbolTable
 70
     0
  0
ENDTAB
  0
TABLE
  2
APPID
  5
36
330
0
100
AcDbSymbolTable
 70
     7
  0
APPID
  5
26
330
36
100
AcDbSymbolTableRecord
100
AcDbRegAppTableRecord
  2
ACAD
 70
     0
  0
APPID
  5
4E
330
36
100
AcDbSymbolTableRecord
100
AcDbRegAppTableRecord
  2
ACAD_DSTYLE_DIMTEXT_FILL
 70
     0
  0
APPID
  5
4D
330
36
100
AcDbSymbolTableRecord
100
AcDbRegAppTableRecord
  2
ACAD_DSTYLE_DIMJOGGED_JOGANGLE_SYMBOL
 70
     0
  0
APPID
  5
20
330
36
100
AcDbSymbolTableRecord
100
AcDbRegAppTableRecord
  2
ACAD_PSEXT
 70
     0
  0
APPID
  5
44
330
36
100
AcDbSymbolTableRecord
100
AcDbRegAppTableRecord
  2
AcDbDynamicBlockGUID
 70
     0
  0
APPID
  5
3E
330
36
100
AcDbSymbolTableRecord
100
AcDbRegAppTableRecord
  2
AcDbBlockRepETag
 70
     0
  0
APPID
  5
448
330
36
100
AcDbSymbolTableRecord
100
AcDbRegAppTableRecord
  2
ACAD_DSTYLE_DIMEXT_LENGTH
 70
     0
  0
ENDTAB
  0
TABLE
  2
DIMSTYLE
  5
37
330
0
100
AcDbSymbolTable
 70
     1
100
AcDbDimStyleTable
 71
     1
340
38
  0
DIMSTYLE
105
38
102
{ACAD_REACTORS
330
129
330
13E
330
152
330
166
330
17A
330
3E2
330
3F6
330
40A
330
41E
102
}
330
37
100
AcDbSymbolTableRecord
100
AcDbDimStyleTableRecord
  2
字高-7-7
 70
     0
 40
1.5
 41
3.0
 42
0.3
 43
0.0
 44
0.3
 73
     0
 74
     0
140
3.0
141
0.0
147
1.0
176
     3
177
     3
178
     3
179
     1
271
     2
272
     2
340
39
341
3A
342
45
371
    25
372
    25
1001
ACAD_DSTYLE_DIMEXT_LENGTH
1070
   378
1040
0.18
1001
ACAD_DSTYLE_DIMJOGGED_JOGANGLE_SYMBOL
1070
   384
1040
1.570796326794896
1001
ACAD_DSTYLE_DIMTEXT_FILL
1070
   376
1070
     1
1070
   377
1004
1800000001000000000000C0000000000000000000000000
  0
ENDTAB
  0
TABLE
  2
BLOCK_RECORD
  5
1
330
0
100
AcDbSymbolTable
 70
    12
  0
BLOCK_RECORD
  5
2
102
{ACAD_XDICTIONARY
360
3
102
}
330
1
100
AcDbSymbolTableRecord
100
AcDbBlockTableRecord
  2
*Model_Space
340
18
  0
BLOCK_RECORD
  5
1A
330
1
100
AcDbSymbolTableRecord
100
AcDbBlockTableRecord
  2
*Paper_Space
340
1D
  0
BLOCK_RECORD
  5
45
102
{ACAD_XDICTIONARY
360
46
102
}
330
1
100
AcDbSymbolTableRecord
100
AcDbBlockTableRecord
  2
_ClosedBlank
340
0
102
{BLKREFS
331
132
331
133
331
147
331
148
331
15B
331
15C
331
16F
331
170
331
183
331
184
331
3EB
331
3EC
331
3FF
331
400
331
413
331
414
331
427
331
428
102
}
  0
BLOCK_RECORD
  5
3A
102
{ACAD_XDICTIONARY
360
3B
102
}
330
1
100
AcDbSymbolTableRecord
100
AcDbBlockTableRecord
  2
2011.2.2.2.2
340
0
310
2800000020000000200000000100080000000000000400000000000000000000000000000000000000000000000080000080000000808000800000008000800080800000C0C0C000C0DCC000F0CAA6000020400000206000002080000020A0000020C0000020E00000400000004020000040400000406000004080000040A0
310
000040C0000040E00000600000006020000060400000606000006080000060A0000060C0000060E00000800000008020000080400000806000008080000080A0000080C0000080E00000A0000000A0200000A0400000A0600000A0800000A0A00000A0C00000A0E00000C0000000C0200000C0400000C0600000C0800000C0
310
A00000C0C00000C0E00000E0000000E0200000E0400000E0600000E0800000E0A00000E0C00000E0E00040000000400020004000400040006000400080004000A0004000C0004000E00040200000402020004020400040206000402080004020A0004020C0004020E000404000004040200040404000404060004040800040
310
40A0004040C0004040E00040600000406020004060400040606000406080004060A0004060C0004060E00040800000408020004080400040806000408080004080A0004080C0004080E00040A0000040A0200040A0400040A0600040A0800040A0A00040A0C00040A0E00040C0000040C0200040C0400040C0600040C08000
310
40C0A00040C0C00040C0E00040E0000040E0200040E0400040E0600040E0800040E0A00040E0C00040E0E00080000000800020008000400080006000800080008000A0008000C0008000E00080200000802020008020400080206000802080008020A0008020C0008020E00080400000804020008040400080406000804080
310
008040A0008040C0008040E00080600000806020008060400080606000806080008060A0008060C0008060E00080800000808020008080400080806000808080008080A0008080C0008080E00080A0000080A0200080A0400080A0600080A0800080A0A00080A0C00080A0E00080C0000080C0200080C0400080C0600080C0
310
800080C0A00080C0C00080C0E00080E0000080E0200080E0400080E0600080E0800080E0A00080E0C00080E0E000C0000000C0002000C0004000C0006000C0008000C000A000C000C000C000E000C0200000C0202000C0204000C0206000C0208000C020A000C020C000C020E000C0400000C0402000C0404000C0406000C0
310
408000C040A000C040C000C040E000C0600000C0602000C0604000C0606000C0608000C060A000C060C000C060E000C0800000C0802000C0804000C0806000C0808000C080A000C080C000C080E000C0A00000C0A02000C0A04000C0A06000C0A08000C0A0A000C0A0C000C0A0E000C0C00000C0C02000C0C04000C0C06000
310
C0C08000C0C0A000F0FBFF00A4A0A000808080000000FF0000FF000000FFFF00FF000000FF00FF00FFFF0000FFFFFF0000000000000000000000000000000000000000000000000000000000000000000000000000000000000000000000000000000000000000000000000000000000000000000000000000000000000000
310
00000000000000000000000000000000000000000000000000000000000000000000000000000000000000000000000000000000000000000000000000000000000000000000000000000000000000000000000000000000000000000000000000000000000000000000000000000000000000000000000000000000000000
310
00000000000000000000000000000000000000000000000000000000000000000000000000000000000000000000000000000000000000000000000000000000000000000000000000000000000000080800000000000000000000000000000000000000000000000000000808080808000000000000000000000000000000
310
00000000000000000808080800000000080000000000000000000000000000000000000000080808000000000000000800000000000000000000000000000000000808080800000000000000000008000000000000000000000000000000080808000000000000000000000000080000000000000000000000000808080800
310
00000000000000000000000000000800000000000000000808080800000000000000000000000000000000000008000000000000000808080000000000000000000000000000000000000000080000000000000000000000080808080000000000000000000000000000000000080000000000000000000000000000080808
310
08000000000000000000000000000008000000000000000000000000000000000008080808000000000000000000000008000000000000000000000000000000000000000008080808000000000000000800000000000000000000000000000000000000000000000008080808000000000800000000000000000000000000
310
00000000000000000000000000000808080800080000000000000000000000000000000000000000000000000000000000000808080000000000000000000000000000000000000000000000000000000000000000000000000000000000000000000000000000000000000000000000000000000000000000000000000000
310
00000000000000000000000000000000000000000000000000000000000000000000000000000000000000000000000000000000000000000000000000000000000000000000000000000000000000000000000000000000000000000000000000000000000000000000000000000000000000000000000000000000000000
310
0000000000000000000000000000000000000000000000000000000000000000000000000000000000000000000000000000000000000000
1001
AcDbDynamicBlockGUID
1000
{5A71B87D-BF39-4F06-AA88-5AEA35752874}
1001
AcDbBlockRepETag
1070
     1
1071
       12
1001
ACAD
1000
DesignCenter Data
1002
{
1070
     1
1070
     4
1002
}
  0
BLOCK_RECORD
  5
269
102
{ACAD_XDICTIONARY
360
26A
102
}
330
1
100
AcDbSymbolTableRecord
100
AcDbBlockTableRecord
  2
dfdfgrf
340
0
310
2800000020000000200000000100080000000000000400000000000000000000000000000000000000000000000080000080000000808000800000008000800080800000C0C0C000C0DCC000F0CAA6000020400000206000002080000020A0000020C0000020E00000400000004020000040400000406000004080000040A0
310
000040C0000040E00000600000006020000060400000606000006080000060A0000060C0000060E00000800000008020000080400000806000008080000080A0000080C0000080E00000A0000000A0200000A0400000A0600000A0800000A0A00000A0C00000A0E00000C0000000C0200000C0400000C0600000C0800000C0
310
A00000C0C00000C0E00000E0000000E0200000E0400000E0600000E0800000E0A00000E0C00000E0E00040000000400020004000400040006000400080004000A0004000C0004000E00040200000402020004020400040206000402080004020A0004020C0004020E000404000004040200040404000404060004040800040
310
40A0004040C0004040E00040600000406020004060400040606000406080004060A0004060C0004060E00040800000408020004080400040806000408080004080A0004080C0004080E00040A0000040A0200040A0400040A0600040A0800040A0A00040A0C00040A0E00040C0000040C0200040C0400040C0600040C08000
310
40C0A00040C0C00040C0E00040E0000040E0200040E0400040E0600040E0800040E0A00040E0C00040E0E00080000000800020008000400080006000800080008000A0008000C0008000E00080200000802020008020400080206000802080008020A0008020C0008020E00080400000804020008040400080406000804080
310
008040A0008040C0008040E00080600000806020008060400080606000806080008060A0008060C0008060E00080800000808020008080400080806000808080008080A0008080C0008080E00080A0000080A0200080A0400080A0600080A0800080A0A00080A0C00080A0E00080C0000080C0200080C0400080C0600080C0
310
800080C0A00080C0C00080C0E00080E0000080E0200080E0400080E0600080E0800080E0A00080E0C00080E0E000C0000000C0002000C0004000C0006000C0008000C000A000C000C000C000E000C0200000C0202000C0204000C0206000C0208000C020A000C020C000C020E000C0400000C0402000C0404000C0406000C0
310
408000C040A000C040C000C040E000C0600000C0602000C0604000C0606000C0608000C060A000C060C000C060E000C0800000C0802000C0804000C0806000C0808000C080A000C080C000C080E000C0A00000C0A02000C0A04000C0A06000C0A08000C0A0A000C0A0C000C0A0E000C0C00000C0C02000C0C04000C0C06000
310
C0C08000C0C0A000F0FBFF00A4A0A000808080000000FF0000FF000000FFFF00FF000000FF00FF00FFFF0000FFFFFF0000000000000000000000000000000000000000000000000000000000000000000000000000000000000000000000000000000000000000000000000000000000000000000000000000000000000000
310
00000000000000000000000000000000000000000000000000000000000000000000000000000000000000000000000000000000000000000000000000000000000000000000000000000000000000000000000000000000000000000000000000000000000000000000000000000000000000000000000000000000000000
310
00000000000000000000000000000000000000000000000000000000000000000000000000000000000000000000000000000000000000000000000000000000000000000000000000000000000000000000000000000000000000000000000000000000000000000000000000000000000000000000000000000000000000
310
0000000000000000000000000000000000000000000000000000000000000000000000000000000000000000000000000000000000FFFFFFFFFFFFFFFFFFFFFFFFFFFFFFFFFFFFFFFFFFFFFFFFFF000000000000FFFFFFFFFFFFFFFFFFFFFFFFFFFFFFFFFFFFFFFFFFFFFFFFFFFF000000000000FFFFFFFFFFFFFFFFFFFFFF
310
FFFFFFFFFFFF00FF00000000000000000000000000FFFFFFFFFFFFFFFFFFFFFFFFFFFFFFFFFFFFFFFFFFFFFFFFFFFFFFFFFF000000FFFFFFFFFFFFFFFFFFFFFFFFFFFFFFFFFFFFFFFFFFFFFFFFFF00000000000000FFFFFFFFFFFFFFFFFFFFFFFFFFFFFFFFFFFFFFFFFFFFFFFFFFFFFFFF00000000FFFFFFFFFFFFFFFFFFFF
310
FFFFFFFFFFFFFFFFFFFFFFFFFFFFFFFFFFFF00000000FFFFFF000000000000000000000000000000000000000000000000000000000000000000000000000000000000000000000000000000000000000000000000000000000000000000000000000000000000000000000000000000000000000000000000000000000000
310
00000000000000000000000000000000000000000000000000000000000000000000000000000000000000000000000000000000000000000000000000000000000000000000000000000000000000000000000000000000000000000000000000000000000000000000000000000000000000000000000000000000000000
310
00000000000000000000000000000000000000000000000000000000000000000000000000000000000000000000000000000000000000000000000000000000000000000000000000000000000000000000000000000000000000000000000000000000000000000000000000000000000000000000000000000000000000
310
0000000000000000000000000000000000000000000000000000000000000000000000000000000000000000000000000000000000000000
102
{BLKREFS
331
268
331
3DE
102
}
1001
AcDbDynamicBlockGUID
1000
{2E379897-FBAE-40A8-B593-427F9EA9F69E}
1001
AcDbBlockRepETag
1070
     1
1071
        1
1001
ACAD
1000
DesignCenter Data
1002
{
1070
     1
1070
     4
1002
}
  0
BLOCK_RECORD
  5
12C
330
1
100
AcDbSymbolTableRecord
100
AcDbBlockTableRecord
  2
*D3
340
0
  0
BLOCK_RECORD
  5
141
330
1
100
AcDbSymbolTableRecord
100
AcDbBlockTableRecord
  2
*D4
340
0
  0
BLOCK_RECORD
  5
155
330
1
100
AcDbSymbolTableRecord
100
AcDbBlockTableRecord
  2
*D5
340
0
  0
BLOCK_RECORD
  5
169
330
1
100
AcDbSymbolTableRecord
100
AcDbBlockTableRecord
  2
*D6
340
0
  0
BLOCK_RECORD
  5
17D
330
1
100
AcDbSymbolTableRecord
100
AcDbBlockTableRecord
  2
*D7
340
0
  0
BLOCK_RECORD
  5
3E5
330
1
100
AcDbSymbolTableRecord
100
AcDbBlockTableRecord
  2
*D8
340
0
  0
BLOCK_RECORD
  5
3F9
330
1
100
AcDbSymbolTableRecord
100
AcDbBlockTableRecord
  2
*D9
340
0
  0
BLOCK_RECORD
  5
40D
330
1
100
AcDbSymbolTableRecord
100
AcDbBlockTableRecord
  2
*D10
340
0
  0
BLOCK_RECORD
  5
421
330
1
100
AcDbSymbolTableRecord
100
AcDbBlockTableRecord
  2
*D11
340
0
  0
ENDTAB
  0
ENDSEC
  0
SECTION
  2
BLOCKS
  0
BLOCK
  5
5
330
2
100
AcDbEntity
  8
0
100
AcDbBlockBegin
  2
*Model_Space
 70
     0
 10
0.0
 20
0.0
 30
0.0
  3
*Model_Space
  1

  0
ENDBLK
  5
17
330
2
100
AcDbEntity
  8
0
100
AcDbBlockEnd
  0
BLOCK
  5
1B
330
1A
100
AcDbEntity
 67
     1
  8
0
100
AcDbBlockBegin
  2
*Paper_Space
 70
     0
 10
0.0
 20
0.0
 30
0.0
  3
*Paper_Space
  1

  0
ENDBLK
  5
1C
330
1A
100
AcDbEntity
 67
     1
  8
0
100
AcDbBlockEnd
  0
BLOCK
  5
48
330
45
100
AcDbEntity
  8
0
100
AcDbBlockBegin
  2
_ClosedBlank
 70
     0
 10
0.0
 20
0.0
 30
0.0
  3
_ClosedBlank
  1

  0
LINE
  5
49
330
45
100
AcDbEntity
  8
0
  6
ByBlock
 62
     0
370
    -2
100
AcDbLine
 10
-1.0
 20
0.1666666666666666
 30
0.0
 11
0.0
 21
0.0
 31
0.0
  0
LINE
  5
4A
330
45
100
AcDbEntity
  8
0
  6
ByBlock
 62
     0
370
    -2
100
AcDbLine
 10
0.0
 20
0.0
 30
0.0
 11
-1.0
 21
-0.1666666666666666
 31
0.0
  0
LINE
  5
4B
330
45
100
AcDbEntity
  8
0
  6
ByBlock
 62
     0
370
    -2
100
AcDbLine
 10
-1.0
 20
0.1666666666666666
 30
0.0
 11
-1.0
 21
-0.1666666666666666
 31
0.0
  0
ENDBLK
  5
4C
330
45
100
AcDbEntity
  8
0
100
AcDbBlockEnd
  0
BLOCK
  5
3C
330
3A
100
AcDbEntity
  8
0
 62
   254
 48
0.15
370
    -2
100
AcDbBlockBegin
  2
2011.2.2.2.2
 70
     0
 10
0.0
 20
0.0
 30
0.0
  3
2011.2.2.2.2
  1

  0
LINE
  5
3D
330
3A
100
AcDbEntity
  8
0
 62
     3
 48
0.15
370
    -2
100
AcDbLine
 10
0.0
 20
0.0
 30
0.0
 11
-1.0
 21
0.0000000000000001
 31
0.0
1001
AcDbBlockRepETag
1070
     1
1071
        7
1005
3D
  0
LINE
  5
3F
330
3A
100
AcDbEntity
  8
0
 62
     3
 48
0.15
370
    -2
100
AcDbLine
 10
0.0
 20
0.0
 30
0.0
 11
-1.255703574175788
 21
0.336464758633277
 31
0.0
1001
AcDbBlockRepETag
1070
     1
1071
        8
1005
3F
  0
LINE
  5
40
330
3A
100
AcDbEntity
  8
0
 62
     3
 48
0.15
370
    -2
100
AcDbLine
 10
0.0
 20
0.0
 30
0.0
 11
-1.256055230666228
 21
-0.3351496046782777
 31
0.0
1001
AcDbBlockRepETag
1070
     1
1071
        9
1005
40
  0
LINE
  5
41
330
3A
100
AcDbEntity
  8
0
 62
     3
 48
0.15
370
    -2
100
AcDbLine
 10
-0.75
 20
0.0000000000000001
 30
0.0
 11
-1.255703574175788
 21
0.336464758633277
 31
0.0
1001
AcDbBlockRepETag
1070
     1
1071
       10
1005
41
  0
LINE
  5
42
330
3A
100
AcDbEntity
  8
0
 62
     3
 48
0.15
370
    -2
100
AcDbLine
 10
-0.75
 20
0.0000000000000001
 30
0.0
 11
-1.256055230666228
 21
-0.3351496046782777
 31
0.0
1001
AcDbBlockRepETag
1070
     1
1071
       11
1005
42
  0
ENDBLK
  5
43
330
3A
100
AcDbEntity
  8
0
 62
   254
 48
0.15
370
    -2
100
AcDbBlockEnd
  0
BLOCK
  5
26B
330
269
100
AcDbEntity
  8
0
 62
     0
 48
0.05
100
AcDbBlockBegin
  2
dfdfgrf
 70
     0
 10
0.0
 20
0.0
 30
0.0
  3
dfdfgrf
  1

  0
MTEXT
  5
26C
330
269
100
AcDbEntity
  8
dim
 62
     0
 48
0.05
100
AcDbMText
 10
3902.406610111246
 20
455.9011055042248
 30
0.0
 40
5.0
 41
208.416850416621
 71
     1
 72
     5
  3
{\fSimSun|b0|i0|c134|p2;NOTE:\P1.ALL SURFACES NO SHRINKAGE,BURRS,JUNCTION LINES ALLOWED  \P2.CRITICAL DIMENSIONS ARE INDICATED ON THE DRAWING \P3.ALL INDICATED SURFACES ARE POLISHED, THE OPTICAL SURFACE POLISHING MUST BE SPI-A1 STANDARD\P4.THE PARTS 
  1
IS COMPLIANT TO ROHS AND REACH STANDARD}
  7
ROMANC
 73
     1
 44
1.0
1001
AcDbBlockRepETag
1070
     1
1071
        0
1005
26C
  0
ENDBLK
  5
26D
330
269
100
AcDbEntity
  8
0
 62
     0
 48
0.05
100
AcDbBlockEnd
  0
BLOCK
  5
12D
330
12C
100
AcDbEntity
  8
0
 48
0.05
100
AcDbBlockBegin
  2
*D3
 70
     1
 10
0.0
 20
0.0
 30
0.0
  3
*D3
  1

  0
LINE
  5
12E
330
12C
100
AcDbEntity
  8
0
 62
     7
 48
0.05
370
    25
100
AcDbLine
 10
8944.550556538409
 20
1987.796730523143
 30
0.0
 11
8975.243165084886
 21
1987.796730523143
 31
0.0
  0
LINE
  5
12F
330
12C
100
AcDbEntity
  8
0
 62
     7
 48
0.05
370
    25
100
AcDbLine
 10
8959.45976904148
 20
1998.946617740726
 30
0.0
 11
8975.243165084886
 21
1998.946617740726
 31
0.0
  0
LINE
  5
130
330
12C
100
AcDbEntity
  8
0
 62
     7
 48
0.05
370
    25
100
AcDbLine
 10
8974.993290084887
 20
1988.796730523143
 30
0.0
 11
8974.993290084887
 21
1990.66329218749
 31
0.0
  0
LINE
  5
131
330
12C
100
AcDbEntity
  8
0
 62
     7
 48
0.05
370
    25
100
AcDbLine
 10
8974.993290084887
 20
1997.946617740726
 30
0.0
 11
8974.993290084887
 21
1996.080056076379
 31
0.0
  0
INSERT
  5
132
330
12C
100
AcDbEntity
  8
0
 62
     7
 48
0.05
370
    25
100
AcDbBlockReference
  2
_ClosedBlank
 10
8974.993290084887
 20
1987.796730523143
 30
0.0
 50
270.0
  0
INSERT
  5
133
330
12C
100
AcDbEntity
  8
0
 62
     7
 48
0.05
370
    25
100
AcDbBlockReference
  2
_ClosedBlank
 10
8974.993290084887
 20
1998.946617740726
 30
0.0
 50
90.0
  0
MTEXT
  5
134
330
12C
100
AcDbEntity
  8
0
 62
     7
 48
0.05
100
AcDbMText
 10
8974.993290084887
 20
1993.371674131936
 30
0.0
 40
1.75
 41
0.0
 71
     5
 72
     1
  1
\A1;11.15
  7
尺寸
 11
0.0000000000000001
 21
1.0
 31
0.0
 73
     1
 44
1.0
 90
        3
 63
     9
421
 13158600
 45
1.1
441
   720204
  0
LINE
  5
135
330
12C
100
AcDbEntity
  8
0
 62
     7
 48
0.05
370
    25
100
AcDbLine
 10
8976.118165084887
 20
1990.66329218749
 30
0.0
 11
8976.118165084887
 21
1996.080056076379
 31
0.0
  0
LINE
  5
136
330
12C
100
AcDbEntity
  8
0
 62
     7
 48
0.05
370
    25
100
AcDbLine
 10
8976.118165084887
 20
1996.080056076379
 30
0.0
 11
8973.868415084888
 21
1996.080056076379
 31
0.0
  0
LINE
  5
137
330
12C
100
AcDbEntity
  8
0
 62
     7
 48
0.05
370
    25
100
AcDbLine
 10
8973.868415084888
 20
1996.080056076379
 30
0.0
 11
8973.868415084888
 21
1990.66329218749
 31
0.0
  0
LINE
  5
138
330
12C
100
AcDbEntity
  8
0
 62
     7
 48
0.05
370
    25
100
AcDbLine
 10
8973.868415084888
 20
1990.66329218749
 30
0.0
 11
8976.118165084887
 21
1990.66329218749
 31
0.0
  0
POINT
  5
139
330
12C
100
AcDbEntity
  8
Defpoints
 62
     0
 48
0.05
100
AcDbPoint
 10
8944.300681538411
 20
1987.796730523143
 30
0.0
  0
POINT
  5
13B
330
12C
100
AcDbEntity
  8
Defpoints
 62
     0
 48
0.05
100
AcDbPoint
 10
8959.20989404148
 20
1998.946617740726
 30
0.0
  0
POINT
  5
13C
330
12C
100
AcDbEntity
  8
Defpoints
 62
     0
 48
0.05
100
AcDbPoint
 10
8974.993290084887
 20
1998.946617740726
 30
0.0
  0
ENDBLK
  5
13D
330
12C
100
AcDbEntity
  8
0
 48
0.05
100
AcDbBlockEnd
  0
BLOCK
  5
142
330
141
100
AcDbEntity
  8
0
 48
0.05
100
AcDbBlockBegin
  2
*D4
 70
     1
 10
0.0
 20
0.0
 30
0.0
  3
*D4
  1

  0
LINE
  5
143
330
141
100
AcDbEntity
  8
0
 62
     7
 48
0.05
370
    25
100
AcDbLine
 10
8924.282211547453
 20
1972.713194767097
 30
0.0
 11
8924.282211547453
 21
1978.678573015788
 31
0.0
  0
LINE
  5
144
330
141
100
AcDbEntity
  8
0
 62
     7
 48
0.05
370
    25
100
AcDbLine
 10
8964.319151521685
 20
1973.502040167969
 30
0.0
 11
8964.319151521685
 21
1978.678573015788
 31
0.0
  0
LINE
  5
145
330
141
100
AcDbEntity
  8
0
 62
     7
 48
0.05
370
    25
100
AcDbLine
 10
8925.282211547452
 20
1978.428698015789
 30
0.0
 11
8941.480737090126
 21
1978.428698015789
 31
0.0
  0
LINE
  5
146
330
141
100
AcDbEntity
  8
0
 62
     7
 48
0.05
370
    25
100
AcDbLine
 10
8963.319151521686
 20
1978.428698015789
 30
0.0
 11
8947.120625979012
 21
1978.428698015789
 31
0.0
  0
INSERT
  5
147
330
141
100
AcDbEntity
  8
0
 62
     7
 48
0.05
370
    25
100
AcDbBlockReference
  2
_ClosedBlank
 10
8924.282211547453
 20
1978.428698015789
 30
0.0
 50
180.0
  0
INSERT
  5
148
330
141
100
AcDbEntity
  8
0
 62
     7
 48
0.05
370
    25
100
AcDbBlockReference
  2
_ClosedBlank
 10
8964.319151521685
 20
1978.428698015789
 30
0.0
  0
MTEXT
  5
149
330
141
100
AcDbEntity
  8
0
 62
     7
 48
0.05
100
AcDbMText
 10
8944.300681534569
 20
1978.428698015789
 30
0.0
 40
1.75
 41
0.0
 71
     5
 72
     1
  1
\A1;40.04
  7
尺寸
 73
     1
 44
1.0
 90
        3
 63
     9
421
 13158600
 45
1.1
441
 12852412
  0
LINE
  5
14A
330
141
100
AcDbEntity
  8
0
 62
     7
 48
0.05
370
    25
100
AcDbLine
 10
8941.480737090126
 20
1977.303823015789
 30
0.0
 11
8947.120625979012
 21
1977.303823015789
 31
0.0
  0
LINE
  5
14B
330
141
100
AcDbEntity
  8
0
 62
     7
 48
0.05
370
    25
100
AcDbLine
 10
8947.120625979012
 20
1977.303823015789
 30
0.0
 11
8947.120625979012
 21
1979.553573015788
 31
0.0
  0
LINE
  5
14C
330
141
100
AcDbEntity
  8
0
 62
     7
 48
0.05
370
    25
100
AcDbLine
 10
8947.120625979012
 20
1979.553573015788
 30
0.0
 11
8941.480737090126
 21
1979.553573015788
 31
0.0
  0
LINE
  5
14D
330
141
100
AcDbEntity
  8
0
 62
     7
 48
0.05
370
    25
100
AcDbLine
 10
8941.480737090126
 20
1979.553573015788
 30
0.0
 11
8941.480737090126
 21
1977.303823015789
 31
0.0
  0
POINT
  5
14E
330
141
100
AcDbEntity
  8
Defpoints
 62
     0
 48
0.05
100
AcDbPoint
 10
8924.282211547453
 20
1972.463319767097
 30
0.0
  0
POINT
  5
14F
330
141
100
AcDbEntity
  8
Defpoints
 62
     0
 48
0.05
100
AcDbPoint
 10
8964.319151521685
 20
1973.252165167969
 30
0.0
  0
POINT
  5
150
330
141
100
AcDbEntity
  8
Defpoints
 62
     0
 48
0.05
100
AcDbPoint
 10
8964.319151521685
 20
1978.428698015789
 30
0.0
  0
ENDBLK
  5
151
330
141
100
AcDbEntity
  8
0
 48
0.05
100
AcDbBlockEnd
  0
BLOCK
  5
156
330
155
100
AcDbEntity
  8
0
 48
0.05
100
AcDbBlockBegin
  2
*D5
 70
     1
 10
0.0
 20
0.0
 30
0.0
  3
*D5
  1

  0
LINE
  5
157
330
155
100
AcDbEntity
  8
0
 62
     7
 48
0.05
370
    25
100
AcDbLine
 10
8961.680917812266
 20
1966.236978414885
 30
0.0
 11
8971.26168440266
 21
1966.236978414885
 31
0.0
  0
LINE
  5
158
330
155
100
AcDbEntity
  8
0
 62
     7
 48
0.05
370
    25
100
AcDbLine
 10
8962.077911396738
 20
1975.938335506924
 30
0.0
 11
8971.26168440266
 21
1975.938335506924
 31
0.0
  0
LINE
  5
159
330
155
100
AcDbEntity
  8
0
 62
     7
 48
0.05
370
    25
100
AcDbLine
 10
8971.011809402662
 20
1967.236978414885
 30
0.0
 11
8971.011809402662
 21
1969.358545849793
 31
0.0
  0
LINE
  5
15A
330
155
100
AcDbEntity
  8
0
 62
     7
 48
0.05
370
    25
100
AcDbLine
 10
8971.011809402662
 20
1974.938335506924
 30
0.0
 11
8971.011809402662
 21
1972.816768072015
 31
0.0
  0
INSERT
  5
15B
330
155
100
AcDbEntity
  8
0
 62
     7
 48
0.05
370
    25
100
AcDbBlockReference
  2
_ClosedBlank
 10
8971.011809402662
 20
1966.236978414885
 30
0.0
 50
270.0
  0
INSERT
  5
15C
330
155
100
AcDbEntity
  8
0
 62
     7
 48
0.05
370
    25
100
AcDbBlockReference
  2
_ClosedBlank
 10
8971.011809402662
 20
1975.938335506924
 30
0.0
 50
90.0
  0
MTEXT
  5
15D
330
155
100
AcDbEntity
  8
0
 62
     7
 48
0.05
100
AcDbMText
 10
8971.011809402662
 20
1971.087656960906
 30
0.0
 40
1.75
 41
0.0
 71
     5
 72
     1
  1
\A1;9.7
  7
尺寸
 11
0.0000000000000001
 21
1.0
 31
0.0
 73
     1
 44
1.0
 90
        3
 63
     9
421
 13158600
 45
1.1
441
 12846940
  0
LINE
  5
15E
330
155
100
AcDbEntity
  8
0
 62
     7
 48
0.05
370
    25
100
AcDbLine
 10
8972.136684402661
 20
1969.358545849793
 30
0.0
 11
8972.136684402661
 21
1972.816768072015
 31
0.0
  0
LINE
  5
15F
330
155
100
AcDbEntity
  8
0
 62
     7
 48
0.05
370
    25
100
AcDbLine
 10
8972.136684402661
 20
1972.816768072015
 30
0.0
 11
8969.886934402664
 21
1972.816768072015
 31
0.0
  0
LINE
  5
160
330
155
100
AcDbEntity
  8
0
 62
     7
 48
0.05
370
    25
100
AcDbLine
 10
8969.886934402664
 20
1972.816768072015
 30
0.0
 11
8969.886934402664
 21
1969.358545849793
 31
0.0
  0
LINE
  5
161
330
155
100
AcDbEntity
  8
0
 62
     7
 48
0.05
370
    25
100
AcDbLine
 10
8969.886934402664
 20
1969.358545849793
 30
0.0
 11
8972.136684402661
 21
1969.358545849793
 31
0.0
  0
POINT
  5
162
330
155
100
AcDbEntity
  8
Defpoints
 62
     0
 48
0.05
100
AcDbPoint
 10
8961.431042812266
 20
1966.236978414885
 30
0.0
  0
POINT
  5
163
330
155
100
AcDbEntity
  8
Defpoints
 62
     0
 48
0.05
100
AcDbPoint
 10
8961.828036396738
 20
1975.938335506924
 30
0.0
  0
POINT
  5
164
330
155
100
AcDbEntity
  8
Defpoints
 62
     0
 48
0.05
100
AcDbPoint
 10
8971.011809402662
 20
1975.938335506924
 30
0.0
  0
ENDBLK
  5
165
330
155
100
AcDbEntity
  8
0
 48
0.05
100
AcDbBlockEnd
  0
BLOCK
  5
16A
330
169
100
AcDbEntity
  8
0
 48
0.05
100
AcDbBlockBegin
  2
*D6
 70
     1
 10
0.0
 20
0.0
 30
0.0
  3
*D6
  1

  0
LINE
  5
16B
330
169
100
AcDbEntity
  8
0
 62
     7
 48
0.05
370
    25
100
AcDbLine
 10
8963.532298772932
 20
1969.98696318058
 30
0.0
 11
8966.813667887812
 21
1969.98696318058
 31
0.0
  0
LINE
  5
16C
330
169
100
AcDbEntity
  8
0
 62
     7
 48
0.05
370
    25
100
AcDbLine
 10
8963.786742467799
 20
1968.387284576538
 30
0.0
 11
8966.813667887812
 21
1968.387284576538
 31
0.0
  0
LINE
  5
16D
330
169
100
AcDbEntity
  8
0
 62
     7
 48
0.05
370
    25
100
AcDbLine
 10
8966.563792887813
 20
1970.986963180579
 30
0.0
 11
8966.563792887813
 21
1971.986963180579
 31
0.0
  0
LINE
  5
16E
330
169
100
AcDbEntity
  8
0
 62
     7
 48
0.05
370
    25
100
AcDbLine
 10
8966.563792887813
 20
1967.387284576538
 30
0.0
 11
8966.563792887813
 21
1966.387284576538
 31
0.0
  0
INSERT
  5
16F
330
169
100
AcDbEntity
  8
0
 62
     7
 48
0.05
370
    25
100
AcDbBlockReference
  2
_ClosedBlank
 10
8966.563792887813
 20
1969.98696318058
 30
0.0
 50
270.0
  0
INSERT
  5
170
330
169
100
AcDbEntity
  8
0
 62
     7
 48
0.05
370
    25
100
AcDbBlockReference
  2
_ClosedBlank
 10
8966.563792887813
 20
1968.387284576538
 30
0.0
 50
90.0
  0
MTEXT
  5
171
330
169
100
AcDbEntity
  8
0
 62
     7
 48
0.05
100
AcDbMText
 10
8966.563792887813
 20
1964.72428457654
 30
0.0
 40
1.75
 41
0.0
 71
     5
 72
     1
  1
\A1;1.6
  7
尺寸
 11
0.0000000000000001
 21
1.0
 31
0.0
 73
     1
 44
1.0
 90
        3
 63
     9
421
 13158600
 45
1.1
441
 12930140
  0
LINE
  5
172
330
169
100
AcDbEntity
  8
0
 62
     7
 48
0.05
370
    25
100
AcDbLine
 10
8967.688667887813
 20
1963.061284576538
 30
0.0
 11
8967.688667887813
 21
1966.387284576538
 31
0.0
  0
LINE
  5
173
330
169
100
AcDbEntity
  8
0
 62
     7
 48
0.05
370
    25
100
AcDbLine
 10
8967.688667887813
 20
1966.387284576538
 30
0.0
 11
8965.438917887814
 21
1966.387284576538
 31
0.0
  0
LINE
  5
174
330
169
100
AcDbEntity
  8
0
 62
     7
 48
0.05
370
    25
100
AcDbLine
 10
8965.438917887814
 20
1966.387284576538
 30
0.0
 11
8965.438917887814
 21
1963.061284576538
 31
0.0
  0
LINE
  5
175
330
169
100
AcDbEntity
  8
0
 62
     7
 48
0.05
370
    25
100
AcDbLine
 10
8965.438917887814
 20
1963.061284576538
 30
0.0
 11
8967.688667887813
 21
1963.061284576538
 31
0.0
  0
POINT
  5
176
330
169
100
AcDbEntity
  8
Defpoints
 62
     0
 48
0.05
100
AcDbPoint
 10
8963.282423772932
 20
1969.98696318058
 30
0.0
  0
POINT
  5
177
330
169
100
AcDbEntity
  8
Defpoints
 62
     0
 48
0.05
100
AcDbPoint
 10
8963.5368674678
 20
1968.387284576538
 30
0.0
  0
POINT
  5
178
330
169
100
AcDbEntity
  8
Defpoints
 62
     0
 48
0.05
100
AcDbPoint
 10
8966.563792887813
 20
1968.387284576538
 30
0.0
  0
ENDBLK
  5
179
330
169
100
AcDbEntity
  8
0
 48
0.05
100
AcDbBlockEnd
  0
BLOCK
  5
17E
330
17D
100
AcDbEntity
  8
0
 48
0.05
100
AcDbBlockBegin
  2
*D7
 70
     1
 10
0.0
 20
0.0
 30
0.0
  3
*D7
  1

  0
LINE
  5
17F
330
17D
100
AcDbEntity
  8
0
 62
     7
 48
0.05
370
    25
100
AcDbLine
 10
8903.331596783825
 20
1966.12772829238
 30
0.0
 11
8903.331596783825
 21
1960.517464544642
 31
0.0
  0
LINE
  5
180
330
17D
100
AcDbEntity
  8
0
 62
     7
 48
0.05
370
    25
100
AcDbLine
 10
8911.387990698914
 20
1965.987103300579
 30
0.0
 11
8911.387990698914
 21
1960.517464544642
 31
0.0
  0
LINE
  5
181
330
17D
100
AcDbEntity
  8
0
 62
     7
 48
0.05
370
    25
100
AcDbLine
 10
8904.331596783825
 20
1960.767339544642
 30
0.0
 11
8905.09352985248
 21
1960.767339544642
 31
0.0
  0
LINE
  5
182
330
17D
100
AcDbEntity
  8
0
 62
     7
 48
0.05
370
    25
100
AcDbLine
 10
8910.387990698913
 20
1960.767339544642
 30
0.0
 11
8909.626057630259
 21
1960.767339544642
 31
0.0
  0
INSERT
  5
183
330
17D
100
AcDbEntity
  8
0
 62
     7
 48
0.05
370
    25
100
AcDbBlockReference
  2
_ClosedBlank
 10
8903.331596783825
 20
1960.767339544642
 30
0.0
 50
180.0
  0
INSERT
  5
184
330
17D
100
AcDbEntity
  8
0
 62
     7
 48
0.05
370
    25
100
AcDbBlockReference
  2
_ClosedBlank
 10
8911.387990698914
 20
1960.767339544642
 30
0.0
  0
MTEXT
  5
185
330
17D
100
AcDbEntity
  8
0
 62
     7
 48
0.05
100
AcDbMText
 10
8907.359793741369
 20
1960.767339544642
 30
0.0
 40
1.75
 41
0.0
 71
     5
 72
     1
  1
\A1;8.06
  7
尺寸
 73
     1
 44
1.0
 90
        3
 63
     9
421
 13158600
 45
1.1
441
 13086732
  0
LINE
  5
186
330
17D
100
AcDbEntity
  8
0
 62
     7
 48
0.05
370
    25
100
AcDbLine
 10
8905.09352985248
 20
1959.642464544642
 30
0.0
 11
8909.626057630259
 21
1959.642464544642
 31
0.0
  0
LINE
  5
187
330
17D
100
AcDbEntity
  8
0
 62
     7
 48
0.05
370
    25
100
AcDbLine
 10
8909.626057630259
 20
1959.642464544642
 30
0.0
 11
8909.626057630259
 21
1961.892214544642
 31
0.0
  0
LINE
  5
188
330
17D
100
AcDbEntity
  8
0
 62
     7
 48
0.05
370
    25
100
AcDbLine
 10
8909.626057630259
 20
1961.892214544642
 30
0.0
 11
8905.09352985248
 21
1961.892214544642
 31
0.0
  0
LINE
  5
189
330
17D
100
AcDbEntity
  8
0
 62
     7
 48
0.05
370
    25
100
AcDbLine
 10
8905.09352985248
 20
1961.892214544642
 30
0.0
 11
8905.09352985248
 21
1959.642464544642
 31
0.0
  0
POINT
  5
18A
330
17D
100
AcDbEntity
  8
Defpoints
 62
     0
 48
0.05
100
AcDbPoint
 10
8903.331596783825
 20
1966.37760329238
 30
0.0
  0
POINT
  5
18B
330
17D
100
AcDbEntity
  8
Defpoints
 62
     0
 48
0.05
100
AcDbPoint
 10
8911.387990698914
 20
1966.23697830058
 30
0.0
  0
POINT
  5
18C
330
17D
100
AcDbEntity
  8
Defpoints
 62
     0
 48
0.05
100
AcDbPoint
 10
8911.387990698914
 20
1960.767339544642
 30
0.0
  0
ENDBLK
  5
18D
330
17D
100
AcDbEntity
  8
0
 48
0.05
100
AcDbBlockEnd
  0
BLOCK
  5
3E6
330
3E5
100
AcDbEntity
  8
0
 48
0.05
100
AcDbBlockBegin
  2
*D8
 70
     1
 10
0.0
 20
0.0
 30
0.0
  3
*D8
  1

  0
LINE
  5
3E7
330
3E5
100
AcDbEntity
  8
0
 62
     7
 48
0.05
370
    25
100
AcDbLine
 10
9107.287599514991
 20
1981.705340209031
 30
0.0
 11
9076.863575048308
 21
1981.705340209031
 31
0.0
  0
LINE
  5
3E8
330
3E5
100
AcDbEntity
  8
0
 62
     7
 48
0.05
370
    25
100
AcDbLine
 10
9091.745273511532
 20
1992.855227131979
 30
0.0
 11
9076.863575048308
 21
1992.855227131979
 31
0.0
  0
LINE
  5
3E9
330
3E5
100
AcDbEntity
  8
0
 62
     7
 48
0.05
370
    25
100
AcDbLine
 10
9077.113450048306
 20
1982.705340209031
 30
0.0
 11
9077.113450048306
 21
1984.57190172606
 31
0.0
  0
LINE
  5
3EA
330
3E5
100
AcDbEntity
  8
0
 62
     7
 48
0.05
370
    25
100
AcDbLine
 10
9077.113450048306
 20
1991.855227131978
 30
0.0
 11
9077.113450048306
 21
1989.988665614949
 31
0.0
  0
INSERT
  5
3EB
330
3E5
100
AcDbEntity
  8
0
 62
     7
 48
0.05
370
    25
100
AcDbBlockReference
  2
_ClosedBlank
 10
9077.113450048306
 20
1981.705340209031
 30
0.0
 50
270.0
  0
INSERT
  5
3EC
330
3E5
100
AcDbEntity
  8
0
 62
     7
 48
0.05
370
    25
100
AcDbBlockReference
  2
_ClosedBlank
 10
9077.113450048306
 20
1992.855227131979
 30
0.0
 50
90.0
  0
MTEXT
  5
3ED
330
3E5
100
AcDbEntity
  8
0
 62
     7
 48
0.05
100
AcDbMText
 10
9077.113450048306
 20
1987.280283670506
 30
0.0
 40
1.75
 41
0.0
 71
     5
 72
     1
  1
\A1;11.15
  7
尺寸
 11
0.0000000000000001
 21
1.0
 31
0.0
 73
     1
 44
1.0
 90
        3
 63
     9
421
 13158600
 45
1.1
441
  7274610
  0
LINE
  5
3EE
330
3E5
100
AcDbEntity
  8
0
 62
     7
 48
0.05
370
    25
100
AcDbLine
 10
9078.238325048308
 20
1984.57190172606
 30
0.0
 11
9078.238325048308
 21
1989.988665614949
 31
0.0
  0
LINE
  5
3EF
330
3E5
100
AcDbEntity
  8
0
 62
     7
 48
0.05
370
    25
100
AcDbLine
 10
9078.238325048308
 20
1989.988665614949
 30
0.0
 11
9075.988575048308
 21
1989.988665614949
 31
0.0
  0
LINE
  5
3F0
330
3E5
100
AcDbEntity
  8
0
 62
     7
 48
0.05
370
    25
100
AcDbLine
 10
9075.988575048308
 20
1989.988665614949
 30
0.0
 11
9075.988575048308
 21
1984.57190172606
 31
0.0
  0
LINE
  5
3F1
330
3E5
100
AcDbEntity
  8
0
 62
     7
 48
0.05
370
    25
100
AcDbLine
 10
9075.988575048308
 20
1984.57190172606
 30
0.0
 11
9078.238325048308
 21
1984.57190172606
 31
0.0
  0
POINT
  5
3F2
330
3E5
100
AcDbEntity
  8
Defpoints
 62
     0
 48
0.05
100
AcDbPoint
 10
9107.537474514991
 20
1981.705340209031
 30
0.0
  0
POINT
  5
3F3
330
3E5
100
AcDbEntity
  8
Defpoints
 62
     0
 48
0.05
100
AcDbPoint
 10
9091.99514851153
 20
1992.855227131979
 30
0.0
  0
POINT
  5
3F4
330
3E5
100
AcDbEntity
  8
Defpoints
 62
     0
 48
0.05
100
AcDbPoint
 10
9077.113450048306
 20
1992.855227131979
 30
0.0
  0
ENDBLK
  5
3F5
330
3E5
100
AcDbEntity
  8
0
 48
0.05
100
AcDbBlockEnd
  0
BLOCK
  5
3FA
330
3F9
100
AcDbEntity
  8
0
 48
0.05
100
AcDbBlockBegin
  2
*D9
 70
     1
 10
0.0
 20
0.0
 30
0.0
  3
*D9
  1

  0
LINE
  5
3FB
330
3F9
100
AcDbEntity
  8
0
 62
     7
 48
0.05
370
    25
100
AcDbLine
 10
9087.529570576053
 20
1969.956197888843
 30
0.0
 11
9087.529570576053
 21
1962.580102617284
 31
0.0
  0
LINE
  5
3FC
330
3F9
100
AcDbEntity
  8
0
 62
     7
 48
0.05
370
    25
100
AcDbLine
 10
9127.566510578226
 20
1969.390204870285
 30
0.0
 11
9127.566510578226
 21
1962.580102617284
 31
0.0
  0
LINE
  5
3FD
330
3F9
100
AcDbEntity
  8
0
 62
     7
 48
0.05
370
    25
100
AcDbLine
 10
9088.529570576053
 20
1962.829977617284
 30
0.0
 11
9104.728096132696
 21
1962.829977617284
 31
0.0
  0
LINE
  5
3FE
330
3F9
100
AcDbEntity
  8
0
 62
     7
 48
0.05
370
    25
100
AcDbLine
 10
9126.566510578227
 20
1962.829977617284
 30
0.0
 11
9110.367985021582
 21
1962.829977617284
 31
0.0
  0
INSERT
  5
3FF
330
3F9
100
AcDbEntity
  8
0
 62
     7
 48
0.05
370
    25
100
AcDbBlockReference
  2
_ClosedBlank
 10
9087.529570576053
 20
1962.829977617284
 30
0.0
 50
180.0
  0
INSERT
  5
400
330
3F9
100
AcDbEntity
  8
0
 62
     7
 48
0.05
370
    25
100
AcDbBlockReference
  2
_ClosedBlank
 10
9127.566510578226
 20
1962.829977617284
 30
0.0
  0
MTEXT
  5
401
330
3F9
100
AcDbEntity
  8
0
 62
     7
 48
0.05
100
AcDbMText
 10
9107.548040577141
 20
1962.829977617284
 30
0.0
 40
1.75
 41
0.0
 71
     5
 72
     1
  1
\A1;40.04
  7
尺寸
 73
     1
 44
1.0
 90
        3
 63
     9
421
 13158600
 45
1.1
441
 13698800
  0
LINE
  5
402
330
3F9
100
AcDbEntity
  8
0
 62
     7
 48
0.05
370
    25
100
AcDbLine
 10
9104.728096132696
 20
1961.705102617284
 30
0.0
 11
9110.367985021582
 21
1961.705102617284
 31
0.0
  0
LINE
  5
403
330
3F9
100
AcDbEntity
  8
0
 62
     7
 48
0.05
370
    25
100
AcDbLine
 10
9110.367985021582
 20
1961.705102617284
 30
0.0
 11
9110.367985021582
 21
1963.954852617284
 31
0.0
  0
LINE
  5
404
330
3F9
100
AcDbEntity
  8
0
 62
     7
 48
0.05
370
    25
100
AcDbLine
 10
9110.367985021582
 20
1963.954852617284
 30
0.0
 11
9104.728096132696
 21
1963.954852617284
 31
0.0
  0
LINE
  5
405
330
3F9
100
AcDbEntity
  8
0
 62
     7
 48
0.05
370
    25
100
AcDbLine
 10
9104.728096132696
 20
1963.954852617284
 30
0.0
 11
9104.728096132696
 21
1961.705102617284
 31
0.0
  0
POINT
  5
406
330
3F9
100
AcDbEntity
  8
Defpoints
 62
     0
 48
0.05
100
AcDbPoint
 10
9087.529570576053
 20
1970.206072888842
 30
0.0
  0
POINT
  5
407
330
3F9
100
AcDbEntity
  8
Defpoints
 62
     0
 48
0.05
100
AcDbPoint
 10
9127.566510578226
 20
1969.640079870285
 30
0.0
  0
POINT
  5
408
330
3F9
100
AcDbEntity
  8
Defpoints
 62
     0
 48
0.05
100
AcDbPoint
 10
9127.566510578226
 20
1962.829977617284
 30
0.0
  0
ENDBLK
  5
409
330
3F9
100
AcDbEntity
  8
0
 48
0.05
100
AcDbBlockEnd
  0
BLOCK
  5
40E
330
40D
100
AcDbEntity
  8
0
 48
0.05
100
AcDbBlockBegin
  2
*D10
 70
     1
 10
0.0
 20
0.0
 30
0.0
  3
*D10
  1

  0
LINE
  5
40F
330
40D
100
AcDbEntity
  8
0
 62
     7
 48
0.05
370
    25
100
AcDbLine
 10
9106.40972123468
 20
1952.781422029555
 30
0.0
 11
9099.989850302938
 21
1952.781422029555
 31
0.0
  0
LINE
  5
410
330
40D
100
AcDbEntity
  8
0
 62
     7
 48
0.05
370
    25
100
AcDbLine
 10
9106.40972123468
 20
1951.72307906115
 30
0.0
 11
9099.989850302938
 21
1951.72307906115
 31
0.0
  0
LINE
  5
411
330
40D
100
AcDbEntity
  8
0
 62
     7
 48
0.05
370
    25
100
AcDbLine
 10
9100.239725302936
 20
1953.781422029555
 30
0.0
 11
9100.239725302936
 21
1954.781422029555
 31
0.0
  0
LINE
  5
412
330
40D
100
AcDbEntity
  8
0
 62
     7
 48
0.05
370
    25
100
AcDbLine
 10
9100.239725302936
 20
1950.72307906115
 30
0.0
 11
9100.239725302936
 21
1949.72307906115
 31
0.0
  0
INSERT
  5
413
330
40D
100
AcDbEntity
  8
0
 62
     7
 48
0.05
370
    25
100
AcDbBlockReference
  2
_ClosedBlank
 10
9100.239725302936
 20
1952.781422029555
 30
0.0
 50
270.0
  0
INSERT
  5
414
330
40D
100
AcDbEntity
  8
0
 62
     7
 48
0.05
370
    25
100
AcDbBlockReference
  2
_ClosedBlank
 10
9100.239725302936
 20
1951.72307906115
 30
0.0
 50
90.0
  0
MTEXT
  5
415
330
40D
100
AcDbEntity
  8
0
 62
     7
 48
0.05
100
AcDbMText
 10
9100.239725302936
 20
1947.531190172263
 30
0.0
 40
1.75
 41
0.0
 71
     5
 72
     1
  1
\A1;1.06
  7
尺寸
 11
0.0000000000000001
 21
1.0
 31
0.0
 73
     1
 44
1.0
 90
        3
 63
     9
421
 13158600
 45
1.1
441
  4391007
  0
LINE
  5
416
330
40D
100
AcDbEntity
  8
0
 62
     7
 48
0.05
370
    25
100
AcDbLine
 10
9101.364600302934
 20
1945.339301283372
 30
0.0
 11
9101.364600302934
 21
1949.72307906115
 31
0.0
  0
LINE
  5
417
330
40D
100
AcDbEntity
  8
0
 62
     7
 48
0.05
370
    25
100
AcDbLine
 10
9101.364600302934
 20
1949.72307906115
 30
0.0
 11
9099.114850302937
 21
1949.72307906115
 31
0.0
  0
LINE
  5
418
330
40D
100
AcDbEntity
  8
0
 62
     7
 48
0.05
370
    25
100
AcDbLine
 10
9099.114850302937
 20
1949.72307906115
 30
0.0
 11
9099.114850302937
 21
1945.339301283372
 31
0.0
  0
LINE
  5
419
330
40D
100
AcDbEntity
  8
0
 62
     7
 48
0.05
370
    25
100
AcDbLine
 10
9099.114850302937
 20
1945.339301283372
 30
0.0
 11
9101.364600302934
 21
1945.339301283372
 31
0.0
  0
POINT
  5
41A
330
40D
100
AcDbEntity
  8
Defpoints
 62
     0
 48
0.05
100
AcDbPoint
 10
9106.659596234678
 20
1952.781422029555
 30
0.0
  0
POINT
  5
41B
330
40D
100
AcDbEntity
  8
Defpoints
 62
     0
 48
0.05
100
AcDbPoint
 10
9106.659596234678
 20
1951.72307906115
 30
0.0
  0
POINT
  5
41C
330
40D
100
AcDbEntity
  8
Defpoints
 62
     0
 48
0.05
100
AcDbPoint
 10
9100.239725302936
 20
1951.72307906115
 30
0.0
  0
ENDBLK
  5
41D
330
40D
100
AcDbEntity
  8
0
 48
0.05
100
AcDbBlockEnd
  0
BLOCK
  5
422
330
421
100
AcDbEntity
  8
0
 48
0.05
100
AcDbBlockBegin
  2
*D11
 70
     1
 10
0.0
 20
0.0
 30
0.0
  3
*D11
  1

  0
LINE
  5
423
330
421
100
AcDbEntity
  8
0
 62
     7
 48
0.05
370
    25
100
AcDbLine
 10
9123.738373553818
 20
1973.788906359434
 30
0.0
 11
9131.451184647749
 21
1973.788906359434
 31
0.0
  0
LINE
  5
424
330
421
100
AcDbEntity
  8
0
 62
     7
 48
0.05
370
    25
100
AcDbLine
 10
9123.07728134334
 20
1967.438202600676
 30
0.0
 11
9131.451184647749
 21
1967.438202600676
 31
0.0
  0
LINE
  5
425
330
421
100
AcDbEntity
  8
0
 62
     7
 48
0.05
370
    25
100
AcDbLine
 10
9131.20130964775
 20
1974.788906359434
 30
0.0
 11
9131.20130964775
 21
1975.788906359434
 31
0.0
  0
LINE
  5
426
330
421
100
AcDbEntity
  8
0
 62
     7
 48
0.05
370
    25
100
AcDbLine
 10
9131.20130964775
 20
1966.438202600676
 30
0.0
 11
9131.20130964775
 21
1965.438202600676
 31
0.0
  0
INSERT
  5
427
330
421
100
AcDbEntity
  8
0
 62
     7
 48
0.05
370
    25
100
AcDbBlockReference
  2
_ClosedBlank
 10
9131.20130964775
 20
1973.788906359434
 30
0.0
 50
270.0
  0
INSERT
  5
428
330
421
100
AcDbEntity
  8
0
 62
     7
 48
0.05
370
    25
100
AcDbBlockReference
  2
_ClosedBlank
 10
9131.20130964775
 20
1967.438202600676
 30
0.0
 50
90.0
  0
MTEXT
  5
429
330
421
100
AcDbEntity
  8
0
 62
     7
 48
0.05
100
AcDbMText
 10
9131.20130964775
 20
1963.188466489566
 30
0.0
 40
1.75
 41
0.0
 71
     5
 72
     1
  1
\A1;6.35
  7
尺寸
 11
0.0000000000000001
 21
1.0
 31
0.0
 73
     1
 44
1.0
 90
        3
 63
     9
421
 13158600
 45
1.1
441
  4391007
  0
LINE
  5
42A
330
421
100
AcDbEntity
  8
0
 62
     7
 48
0.05
370
    25
100
AcDbLine
 10
9132.32618464775
 20
1960.938730378454
 30
0.0
 11
9132.32618464775
 21
1965.438202600676
 31
0.0
  0
LINE
  5
42B
330
421
100
AcDbEntity
  8
0
 62
     7
 48
0.05
370
    25
100
AcDbLine
 10
9132.32618464775
 20
1965.438202600676
 30
0.0
 11
9130.076434647751
 21
1965.438202600676
 31
0.0
  0
LINE
  5
42C
330
421
100
AcDbEntity
  8
0
 62
     7
 48
0.05
370
    25
100
AcDbLine
 10
9130.076434647751
 20
1965.438202600676
 30
0.0
 11
9130.076434647751
 21
1960.938730378454
 31
0.0
  0
LINE
  5
42D
330
421
100
AcDbEntity
  8
0
 62
     7
 48
0.05
370
    25
100
AcDbLine
 10
9130.076434647751
 20
1960.938730378454
 30
0.0
 11
9132.32618464775
 21
1960.938730378454
 31
0.0
  0
POINT
  5
42E
330
421
100
AcDbEntity
  8
Defpoints
 62
     0
 48
0.05
100
AcDbPoint
 10
9123.488498553816
 20
1973.788906359434
 30
0.0
  0
POINT
  5
42F
330
421
100
AcDbEntity
  8
Defpoints
 62
     0
 48
0.05
100
AcDbPoint
 10
9122.82740634334
 20
1967.438202600676
 30
0.0
  0
POINT
  5
430
330
421
100
AcDbEntity
  8
Defpoints
 62
     0
 48
0.05
100
AcDbPoint
 10
9131.20130964775
 20
1967.438202600676
 30
0.0
  0
ENDBLK
  5
431
330
421
100
AcDbEntity
  8
0
 48
0.05
100
AcDbBlockEnd
  0
ENDSEC
  0
SECTION
  2
ENTITIES
  0
LINE
  5
72
102
{ACAD_REACTORS
330
140
102
}
330
2
100
AcDbEntity
  8
0
  6
Continuous
 62
     7
100
AcDbLine
 10
8924.282211547453
 20
1969.98696318058
 30
0.0
 11
8924.282211547453
 21
1974.939676353615
 31
0.0
  0
LINE
  5
73
330
2
100
AcDbEntity
  8
0
  6
Continuous
 62
     7
100
AcDbLine
 10
8924.791092744559
 20
1974.462335621736
 30
0.0
 11
8924.791092744559
 21
1970.145993624517
 31
0.0
  0
LINE
  5
74
330
2
100
AcDbEntity
  8
0
  6
Continuous
 62
     7
100
AcDbLine
 10
8925.064495608992
 20
1966.37760329238
 30
0.0
 11
8925.064495608992
 21
1968.387284576538
 31
0.0
  0
LINE
  5
75
330
2
100
AcDbEntity
  8
0
  6
Continuous
 62
     7
100
AcDbLine
 10
8925.170819147952
 20
1966.27128002776
 30
0.0
 11
8925.170819147952
 21
1968.280961037601
 31
0.0
  0
LINE
  5
76
330
2
100
AcDbEntity
  8
0
  6
Continuous
 62
     7
100
AcDbLine
 10
8925.877852021422
 20
1974.452018235717
 30
0.0
 11
8925.877852021422
 21
1970.165864293443
 31
0.0
  0
LINE
  5
77
330
2
100
AcDbEntity
  8
0
  6
Continuous
 62
     7
100
AcDbLine
 10
8926.355667055116
 20
1968.387284576538
 30
0.0
 11
8926.355667055116
 21
1969.98696318058
 31
0.0
  0
LINE
  5
78
330
2
100
AcDbEntity
  8
0
  6
Continuous
 62
     7
100
AcDbLine
 10
8926.527083610938
 20
1968.3016024111
 30
0.0
 11
8926.527083610938
 21
1970.072645346017
 31
0.0
  0
LINE
  5
79
330
2
100
AcDbEntity
  8
0
  6
Continuous
 62
     7
100
AcDbLine
 10
8927.170482481594
 20
1968.120783991938
 30
0.0
 11
8927.170482481594
 21
1966.23697830058
 31
0.0
  0
LINE
  5
7A
330
2
100
AcDbEntity
  8
0
  6
Continuous
 62
     7
100
AcDbLine
 10
8925.170819147952
 20
1966.27128002776
 30
0.0
 11
8925.064495608992
 21
1966.37760329238
 31
0.0
  0
LINE
  5
7B
330
2
100
AcDbEntity
  8
0
  6
Continuous
 62
     7
100
AcDbLine
 10
8928.026162913997
 20
1970.097914464897
 30
0.0
 11
8928.026162913997
 21
1968.269514687623
 31
0.0
  0
LINE
  5
7C
330
2
100
AcDbEntity
  8
0
  6
Continuous
 62
     7
100
AcDbLine
 10
8925.170819488291
 20
1968.280960697239
 30
0.0
 11
8925.064495608992
 21
1968.387284576538
 31
0.0
  0
LINE
  5
7D
330
2
100
AcDbEntity
  8
0
  6
Continuous
 62
     7
100
AcDbLine
 10
8931.585609658442
 20
1968.269514687623
 30
0.0
 11
8931.585609658442
 21
1970.097914449661
 31
0.0
  0
LINE
  5
7E
330
2
100
AcDbEntity
  8
0
  6
Continuous
 62
     7
100
AcDbLine
 10
8931.885365546124
 20
1968.120783991938
 30
0.0
 11
8931.885365546124
 21
1970.127588060621
 31
0.0
  0
LINE
  5
7F
330
2
100
AcDbEntity
  8
0
  6
Continuous
 62
     7
100
AcDbLine
 10
8926.355667055116
 20
1968.387284576538
 30
0.0
 11
8926.52708298864
 21
1968.301602723522
 31
0.0
  0
LINE
  5
80
330
2
100
AcDbEntity
  8
0
  6
Continuous
 62
     7
100
AcDbLine
 10
8931.585609404425
 20
1968.269514685084
 30
0.0
 11
8931.885365546124
 21
1968.120783956381
 31
0.0
  0
LINE
  5
81
330
2
100
AcDbEntity
  8
0
  6
Continuous
 62
     7
100
AcDbLine
 10
8926.527079770455
 20
1970.072643425783
 30
0.0
 11
8926.355667055116
 21
1969.98696318058
 31
0.0
  0
LINE
  5
82
330
2
100
AcDbEntity
  8
0
  6
Continuous
 62
     7
100
AcDbLine
 10
8961.430884186729
 20
1966.23697830058
 30
0.0
 11
8927.170482481594
 21
1966.23697830058
 31
0.0
  0
LINE
  5
83
330
2
100
AcDbEntity
  8
0
  6
Continuous
 62
     7
100
AcDbLine
 10
8961.430863473008
 20
1968.120783956381
 30
0.0
 11
8956.715997530668
 21
1968.120783956381
 31
0.0
  0
LINE
  5
84
330
2
100
AcDbEntity
  8
0
  6
Continuous
 62
     7
100
AcDbLine
 10
8931.885365546124
 20
1968.120783956381
 30
0.0
 11
8927.170499494527
 21
1968.120783956381
 31
0.0
  0
LINE
  5
85
330
2
100
AcDbEntity
  8
0
  6
Continuous
 62
     7
100
AcDbLine
 10
8928.026141496721
 20
1968.269514685084
 30
0.0
 11
8931.585609404425
 21
1968.269514685084
 31
0.0
  0
LINE
  5
86
330
2
100
AcDbEntity
  8
0
  6
Continuous
 62
     7
100
AcDbLine
 10
8957.015753674872
 20
1968.269514685084
 30
0.0
 11
8960.57519843554
 21
1968.269514685084
 31
0.0
  0
LINE
  5
87
330
2
100
AcDbEntity
  8
0
  6
Continuous
 62
     7
100
AcDbLine
 10
8963.420556062102
 20
1968.278032773198
 30
0.0
 11
8961.106808700769
 21
1968.278032773198
 31
0.0
  0
LINE
  5
88
330
2
100
AcDbEntity
  8
0
  6
Continuous
 62
     7
100
AcDbLine
 10
8925.18080701469
 20
1968.278032768119
 30
0.0
 11
8927.494559544921
 21
1968.278032768119
 31
0.0
  0
LINE
  5
89
330
2
100
AcDbEntity
  8
0
  6
Continuous
 62
     7
100
AcDbLine
 10
8925.064495608992
 20
1968.387284576538
 30
0.0
 11
8926.355667055116
 21
1968.387284576538
 31
0.0
  0
LINE
  5
8A
330
2
100
AcDbEntity
  8
0
  6
Continuous
 62
     7
100
AcDbLine
 10
8962.245696024181
 20
1968.387284576538
 30
0.0
 11
8963.5368674678
 21
1968.387284576538
 31
0.0
  0
LINE
  5
8B
330
2
100
AcDbEntity
  8
0
  6
Continuous
 62
     7
100
AcDbLine
 10
8924.282211547453
 20
1969.98696318058
 30
0.0
 11
8926.355667055116
 21
1969.98696318058
 31
0.0
  0
LINE
  5
8C
102
{ACAD_REACTORS
330
168
102
}
330
2
100
AcDbEntity
  8
0
  6
Continuous
 62
     7
100
AcDbLine
 10
8962.245696024181
 20
1969.98696318058
 30
0.0
 11
8964.319151521685
 21
1969.98696318058
 31
0.0
  0
LINE
  5
8D
330
2
100
AcDbEntity
  8
0
  6
Continuous
 62
     7
100
AcDbLine
 10
8960.575347236384
 20
1970.097914449661
 30
0.0
 11
8957.015753751063
 21
1970.097914449661
 31
0.0
  0
LINE
  5
8E
330
2
100
AcDbEntity
  8
0
  6
Continuous
 62
     7
100
AcDbLine
 10
8931.58560932823
 20
1970.097914449661
 30
0.0
 11
8928.02605814664
 21
1970.097914449661
 31
0.0
  0
LINE
  5
8F
330
2
100
AcDbEntity
  8
0
  6
Continuous
 62
     7
100
AcDbLine
 10
8931.885365546124
 20
1970.127588060621
 30
0.0
 11
8956.715997530668
 21
1970.127588060621
 31
0.0
  0
LINE
  5
90
330
2
100
AcDbEntity
  8
0
  6
Continuous
 62
     7
100
AcDbLine
 10
8931.885365546124
 20
1970.127588060621
 30
0.0
 11
8931.58560932823
 21
1970.097914449661
 31
0.0
  0
LINE
  5
91
330
2
100
AcDbEntity
  8
0
  6
Continuous
 62
     7
100
AcDbLine
 10
8957.015753751063
 20
1970.097914449661
 30
0.0
 11
8956.715997530668
 21
1970.127588060621
 31
0.0
  0
LINE
  5
92
330
2
100
AcDbEntity
  8
0
  6
Continuous
 62
     7
100
AcDbLine
 10
8962.683834512947
 20
1974.449094383302
 30
0.0
 11
8962.669733001876
 21
1974.448540185784
 31
0.0
  0
LINE
  5
93
330
2
100
AcDbEntity
  8
0
  6
Continuous
 62
     7
100
AcDbLine
 10
8954.111996299758
 20
1974.412737918044
 30
0.0
 11
8954.090360597559
 21
1974.412471233279
 31
0.0
  0
LINE
  5
94
330
2
100
AcDbEntity
  8
0
  6
Continuous
 62
     7
100
AcDbLine
 10
8962.669733001876
 20
1974.448540185784
 30
0.0
 11
8962.592164345721
 21
1974.447930580698
 31
0.0
  0
LINE
  5
95
330
2
100
AcDbEntity
  8
0
  6
Continuous
 62
     7
100
AcDbLine
 10
8958.489517209436
 20
1974.435827765179
 30
0.0
 11
8957.013278599795
 21
1974.427867234999
 31
0.0
  0
LINE
  5
96
330
2
100
AcDbEntity
  8
0
  6
Continuous
 62
     7
100
AcDbLine
 10
8962.723517446018
 20
1974.449228213359
 30
0.0
 11
8962.683834512947
 21
1974.449094383302
 31
0.0
  0
LINE
  5
97
330
2
100
AcDbEntity
  8
0
  6
Continuous
 62
     7
100
AcDbLine
 10
8954.634331871782
 20
1974.41384741798
 30
0.0
 11
8954.111996299758
 21
1974.412737918044
 31
0.0
  0
LINE
  5
98
330
2
100
AcDbEntity
  8
0
  6
Continuous
 62
     7
100
AcDbLine
 10
8953.99944006564
 20
1974.409956905061
 30
0.0
 11
8944.300681538411
 21
1974.407408858338
 31
0.0
  0
LINE
  5
99
330
2
100
AcDbEntity
  8
0
  6
Continuous
 62
     7
100
AcDbLine
 10
8961.181786790573
 20
1974.436613773259
 30
0.0
 11
8958.489517209436
 21
1974.435827765179
 31
0.0
  0
LINE
  5
9A
330
2
100
AcDbEntity
  8
0
  6
Continuous
 62
     7
100
AcDbLine
 10
8934.159241539335
 20
1974.429716667424
 30
0.0
 11
8928.747384390005
 21
1974.429727830722
 31
0.0
  0
LINE
  5
9B
330
2
100
AcDbEntity
  8
0
  6
Continuous
 62
     7
100
AcDbLine
 10
8944.300681538411
 20
1974.407408858338
 30
0.0
 11
8939.14373633792
 21
1974.409653065182
 31
0.0
  0
LINE
  5
9C
330
2
100
AcDbEntity
  8
0
  6
Continuous
 62
     7
100
AcDbLine
 10
8928.719143140941
 20
1974.432237652976
 30
0.0
 11
8928.698226200296
 21
1974.432246796977
 31
0.0
  0
LINE
  5
9D
330
2
100
AcDbEntity
  8
0
  6
Continuous
 62
     7
100
AcDbLine
 10
8939.14373633792
 20
1974.409653065182
 30
0.0
 11
8937.219616007871
 21
1974.4123712284
 31
0.0
  0
LINE
  5
9E
330
2
100
AcDbEntity
  8
0
  6
Continuous
 62
     7
100
AcDbLine
 10
8928.719143140941
 20
1974.432237652976
 30
0.0
 11
8928.726427147219
 21
1974.432202225058
 31
0.0
  0
LINE
  5
9F
102
{ACAD_REACTORS
330
154
102
}
330
2
100
AcDbEntity
  8
0
  6
Continuous
 62
     7
100
AcDbLine
 10
8925.280841099619
 20
1975.938335506924
 30
0.0
 11
8963.320684824195
 21
1975.938335506924
 31
0.0
  0
LINE
  5
A0
330
2
100
AcDbEntity
  8
0
  6
Continuous
 62
     7
100
AcDbLine
 10
8962.245696021648
 20
1969.98696318058
 30
0.0
 11
8962.074282501152
 21
1970.072643829635
 31
0.0
  0
LINE
  5
A1
330
2
100
AcDbEntity
  8
0
  6
Continuous
 62
     7
100
AcDbLine
 10
8957.015753418319
 20
1968.269514687623
 30
0.0
 11
8956.715997530668
 21
1968.120783953835
 31
0.0
  0
LINE
  5
A2
330
2
100
AcDbEntity
  8
0
  6
Continuous
 62
     7
100
AcDbLine
 10
8962.07428136322
 20
1968.301603361064
 30
0.0
 11
8962.245696024181
 21
1968.387284576538
 31
0.0
  0
LINE
  5
A3
330
2
100
AcDbEntity
  8
0
  6
Continuous
 62
     7
100
AcDbLine
 10
8956.715997530668
 20
1970.127588060621
 30
0.0
 11
8956.715997530668
 21
1968.1207839894
 31
0.0
  0
LINE
  5
A4
330
2
100
AcDbEntity
  8
0
  6
Continuous
 62
     7
100
AcDbLine
 10
8957.015753418319
 20
1970.097914449661
 30
0.0
 11
8957.015753418319
 21
1968.269514687623
 31
0.0
  0
LINE
  5
A5
330
2
100
AcDbEntity
  8
0
  6
Continuous
 62
     7
100
AcDbLine
 10
8960.575208719991
 20
1968.269514664754
 30
0.0
 11
8960.575208719991
 21
1970.097914472515
 31
0.0
  0
LINE
  5
A6
330
2
100
AcDbEntity
  8
0
  6
Continuous
 62
     7
100
AcDbLine
 10
8963.430543867868
 20
1968.280960976643
 30
0.0
 11
8963.5368674678
 21
1968.387284576538
 31
0.0
  0
LINE
  5
A7
330
2
100
AcDbEntity
  8
0
  6
Continuous
 62
     7
100
AcDbLine
 10
8961.430884186729
 20
1966.23697830058
 30
0.0
 11
8961.430884186729
 21
1968.1207839894
 31
0.0
  0
LINE
  5
A8
330
2
100
AcDbEntity
  8
0
  6
Continuous
 62
     7
100
AcDbLine
 10
8962.074279643678
 20
1970.07264525458
 30
0.0
 11
8962.074279643678
 21
1968.301602497459
 31
0.0
  0
LINE
  5
A9
330
2
100
AcDbEntity
  8
0
  6
Continuous
 62
     7
100
AcDbLine
 10
8962.245696024181
 20
1968.387284576538
 30
0.0
 11
8962.245696024181
 21
1969.98696318058
 31
0.0
  0
LINE
  5
AA
330
2
100
AcDbEntity
  8
0
  6
Continuous
 62
     7
100
AcDbLine
 10
8963.5368674678
 20
1966.37760329238
 30
0.0
 11
8963.430543867868
 21
1966.271279959184
 31
0.0
  0
LINE
  5
AB
330
2
100
AcDbEntity
  8
0
  6
Continuous
 62
     7
100
AcDbLine
 10
8962.723517446018
 20
1974.449228213359
 30
0.0
 11
8962.723517446018
 21
1970.165864138502
 31
0.0
  0
LINE
  5
AC
330
2
100
AcDbEntity
  8
0
  6
Continuous
 62
     7
100
AcDbLine
 10
8963.430543867868
 20
1968.280960976643
 30
0.0
 11
8963.430543867868
 21
1966.271279959184
 31
0.0
  0
LINE
  5
AD
102
{ACAD_REACTORS
330
168
102
}
330
2
100
AcDbEntity
  8
0
  6
Continuous
 62
     7
100
AcDbLine
 10
8963.5368674678
 20
1966.37760329238
 30
0.0
 11
8963.5368674678
 21
1968.387284576538
 31
0.0
  0
LINE
  5
AE
330
2
100
AcDbEntity
  8
0
  6
Continuous
 62
     7
100
AcDbLine
 10
8963.810270573475
 20
1970.14599353562
 30
0.0
 11
8963.810270573475
 21
1974.462165037885
 31
0.0
  0
LINE
  5
AF
102
{ACAD_REACTORS
330
140
102
}
330
2
100
AcDbEntity
  8
0
  6
Continuous
 62
     7
100
AcDbLine
 10
8964.319151521685
 20
1974.939540676978
 30
0.0
 11
8964.319151521685
 21
1969.98696318058
 31
0.0
  0
LINE
  5
B0
330
2
100
AcDbEntity
  8
0
  6
Continuous
 62
     7
100
AcDbLine
 10
8925.170819147952
 20
1950.559069529461
 30
0.0
 11
8925.064495608992
 21
1944.467798074738
 31
0.0
  0
LINE
  5
B1
330
2
100
AcDbEntity
  8
0
  6
Continuous
 62
     7
100
AcDbLine
 10
8932.095516832687
 20
1944.467798074738
 30
0.0
 11
8932.341931539234
 21
1951.524191990882
 31
0.0
  0
LINE
  5
B2
330
2
100
AcDbEntity
  8
0
  6
Continuous
 62
     7
100
AcDbLine
 10
8924.282211547453
 20
1944.467798074738
 30
0.0
 11
8964.319151521685
 21
1944.467798074738
 31
0.0
  0
LINE
  5
B3
330
2
100
AcDbEntity
  8
0
  6
Continuous
 62
     7
100
AcDbLine
 10
8932.341931539234
 20
1951.524191990882
 30
0.0
 11
8956.259431540059
 21
1951.524191990882
 31
0.0
  0
LINE
  5
B4
330
2
100
AcDbEntity
  8
0
  6
Continuous
 62
     7
100
AcDbLine
 10
8961.430884186729
 20
1952.524191992395
 30
0.0
 11
8927.170482481594
 21
1952.524191992395
 31
0.0
  0
LINE
  5
B5
330
2
100
AcDbEntity
  8
0
  6
Continuous
 62
     7
100
AcDbLine
 10
8956.259431540059
 20
1951.524191990882
 30
0.0
 11
8956.505846244075
 21
1944.467798074738
 31
0.0
  0
LINE
  5
B6
330
2
100
AcDbEntity
  8
0
  6
Continuous
 62
     7
100
AcDbLine
 10
8963.5368674678
 20
1944.467798074738
 30
0.0
 11
8963.430543867868
 21
1950.559073049897
 31
0.0
  0
LINE
  5
B7
330
2
100
AcDbEntity
  8
0
  6
Continuous
 62
     7
100
AcDbLine
 10
8903.331596783825
 20
1966.37760329238
 30
0.0
 11
8903.331596783825
 21
1975.938335529778
 31
0.0
  0
LINE
  5
B8
102
{ACAD_REACTORS
330
17C
102
}
330
2
100
AcDbEntity
  8
0
  6
Continuous
 62
     7
100
AcDbLine
 10
8903.331596783825
 20
1966.37760329238
 30
0.0
 11
8911.387990701475
 21
1966.236978414885
 31
0.0
  0
LINE
  5
B9
330
2
100
AcDbEntity
  8
0
  6
Continuous
 62
     7
100
AcDbLine
 10
8903.331596783825
 20
1968.387284576538
 30
0.0
 11
8909.590628525297
 21
1968.278032770659
 31
0.0
  0
LINE
  5
BA
330
2
100
AcDbEntity
  8
0
  6
Continuous
 62
     7
100
AcDbLine
 10
8909.590628525297
 20
1968.278032768119
 30
0.0
 11
8911.387990696381
 21
1968.120783956381
 31
0.0
  0
LINE
  5
BB
330
2
100
AcDbEntity
  8
0
  6
Continuous
 62
     7
100
AcDbLine
 10
8903.3315968168
 20
1969.98696318058
 30
0.0
 11
8914.481483996318
 21
1970.181585186556
 31
0.0
  0
LINE
  5
BC
330
2
100
AcDbEntity
  8
0
  6
Continuous
 62
     7
100
AcDbLine
 10
8908.240324718438
 20
1968.3016024111
 30
0.0
 11
8908.240324718438
 21
1970.072645346017
 31
0.0
  0
LINE
  5
BD
330
2
100
AcDbEntity
  8
0
  6
Continuous
 62
     7
100
AcDbLine
 10
8909.422868238527
 20
1966.27128002776
 30
0.0
 11
8909.422868238527
 21
1968.280961037601
 31
0.0
  0
LINE
  5
BE
330
2
100
AcDbEntity
  8
0
  6
Continuous
 62
     7
100
AcDbLine
 10
8909.687990697854
 20
1970.097914464897
 30
0.0
 11
8909.687990697854
 21
1968.269514687623
 31
0.0
  0
LINE
  5
BF
102
{ACAD_REACTORS
330
17C
102
}
330
2
100
AcDbEntity
  8
0
  6
Continuous
 62
     7
100
AcDbLine
 10
8911.387990698914
 20
1966.23697830058
 30
0.0
 11
8911.387990698914
 21
1970.127588060621
 31
0.0
  0
LINE
  5
C0
330
2
100
AcDbEntity
  8
0
  6
Continuous
 62
     7
100
AcDbLine
 10
8914.209010439135
 20
1974.429716667424
 30
0.0
 11
8913.839986673785
 21
1974.429727830722
 31
0.0
  0
LINE
  5
C1
330
2
100
AcDbEntity
  8
0
  6
Continuous
 62
     7
100
AcDbLine
 10
8913.836943466765
 20
1974.432241940501
 30
0.0
 11
8913.835918231312
 21
1974.432246796977
 31
0.0
  0
LINE
  5
C2
330
2
100
AcDbEntity
  8
0
  6
Continuous
 62
     7
100
AcDbLine
 10
8913.580823420165
 20
1974.452018235717
 30
0.0
 11
8912.442444894285
 21
1974.462335621736
 31
0.0
  0
LINE
  5
C3
330
2
100
AcDbEntity
  8
0
  6
Continuous
 62
     7
100
AcDbLine
 10
8914.474417383575
 20
1974.407785550496
 30
0.0
 11
8914.41106696671
 21
1974.409653065182
 31
0.0
  0
LINE
  5
C4
330
2
100
AcDbEntity
  8
0
  6
Continuous
 62
     7
100
AcDbLine
 10
8912.442444894285
 20
1974.462335621736
 30
0.0
 11
8912.442444894285
 21
1970.145993624517
 31
0.0
  0
LINE
  5
C5
330
2
100
AcDbEntity
  8
0
  6
Continuous
 62
     7
100
AcDbLine
 10
8914.365952766877
 20
1974.411696899036
 30
0.0
 11
8914.348695135613
 21
1974.4123712284
 31
0.0
  0
LINE
  5
C6
330
2
100
AcDbEntity
  8
0
  6
Continuous
 62
     7
100
AcDbLine
 10
8914.41106696671
 20
1974.409653065182
 30
0.0
 11
8914.365952766877
 21
1974.411696899036
 31
0.0
  0
LINE
  5
C7
330
2
100
AcDbEntity
  8
0
  6
Continuous
 62
     7
100
AcDbLine
 10
8903.331596951433
 20
1974.939792436702
 30
0.0
 11
8912.442444894285
 21
1974.46233598242
 31
0.0
  0
LINE
  5
C8
330
2
100
AcDbEntity
  8
0
  6
Continuous
 62
     7
100
AcDbLine
 10
8914.481484001383
 20
1974.407408858338
 30
0.0
 11
8914.474417383575
 21
1974.407785550496
 31
0.0
  0
LINE
  5
C9
330
2
100
AcDbEntity
  8
0
  6
Continuous
 62
     7
100
AcDbLine
 10
8913.837650945639
 20
1974.432237652976
 30
0.0
 11
8913.838253786696
 21
1974.432202225058
 31
0.0
  0
LINE
  5
CA
330
2
100
AcDbEntity
  8
0
  6
Continuous
 62
     7
100
AcDbLine
 10
8913.580823420165
 20
1974.452018235717
 30
0.0
 11
8913.580823420165
 21
1970.165864293443
 31
0.0
  0
LINE
  5
CB
330
2
100
AcDbEntity
  8
0
  6
Continuous
 62
     7
100
AcDbLine
 10
8913.533818606895
 20
1975.403659796999
 30
0.0
 11
8903.331597174981
 21
1975.938335506924
 31
0.0
  0
LINE
  5
CC
330
2
100
AcDbEntity
  8
0
  6
Continuous
 62
     7
100
AcDbLine
 10
8914.481484001383
 20
1970.181585186556
 30
0.0
 11
8914.481484001383
 21
1974.407408858338
 31
0.0
  0
LINE
  5
CD
330
2
100
AcDbEntity
  8
0
  6
Continuous
 62
     7
100
AcDbLine
 10
8962.723517446018
 20
1988.697391731726
 30
0.0
 11
8962.592170261425
 21
1988.684565519125
 31
0.0
  0
LINE
  5
CE
330
2
100
AcDbEntity
  8
0
  6
Continuous
 62
     7
100
AcDbLine
 10
8962.669718043818
 20
1988.692127523307
 30
0.0
 11
8962.592103936911
 21
1988.685245289165
 31
0.0
  0
LINE
  5
CF
330
2
100
AcDbEntity
  8
0
  6
Continuous
 62
     7
100
AcDbLine
 10
8959.294028986242
 20
1988.392796892604
 30
0.0
 11
8958.489528857896
 21
1988.330458256805
 31
0.0
  0
LINE
  5
D0
330
2
100
AcDbEntity
  8
0
  6
Continuous
 62
     7
100
AcDbLine
 10
8954.63441388588
 20
1988.079642187451
 30
0.0
 11
8953.999525516291
 21
1988.045924492628
 31
0.0
  0
LINE
  5
D1
330
2
100
AcDbEntity
  8
0
  6
Continuous
 62
     7
100
AcDbLine
 10
8954.633950912448
 20
1988.088068289467
 30
0.0
 11
8953.998832406211
 21
1988.059367259742
 31
0.0
  0
LINE
  5
D2
330
2
100
AcDbEntity
  8
0
  6
Continuous
 62
     7
100
AcDbLine
 10
8950.286714214479
 20
1987.891616495424
 30
0.0
 11
8947.866792303042
 21
1987.830401306706
 31
0.0
  0
LINE
  5
D3
330
2
100
AcDbEntity
  8
0
  6
Continuous
 62
     7
100
AcDbLine
 10
8928.747411037152
 20
1988.438227810129
 30
0.0
 11
8928.698226200296
 21
1988.442296290686
 31
0.0
  0
LINE
  5
D4
330
2
100
AcDbEntity
  8
0
  6
Continuous
 62
     7
100
AcDbLine
 10
8928.74878799912
 20
1988.454846814227
 30
0.0
 11
8928.699636802015
 21
1988.458998040365
 31
0.0
  0
LINE
  5
D5
330
2
100
AcDbEntity
  8
0
  6
Continuous
 62
     7
100
AcDbLine
 10
8925.877852021422
 20
1988.697391104342
 30
0.0
 11
8925.883074195382
 21
1988.696879347688
 31
0.0
  0
LINE
  5
D6
102
{ACAD_REACTORS
330
12B
102
}
330
2
100
AcDbEntity
  8
0
  6
Continuous
 62
     7
100
AcDbLine
 10
8964.319151521685
 20
1998.946617740726
 30
0.0
 11
8924.282211547453
 21
1998.946617740726
 31
0.0
  0
ARC
  5
D7
330
2
100
AcDbEntity
  8
0
  6
Continuous
 62
     7
100
AcDbCircle
 10
8944.29391148334
 20
5548.972159330997
 30
0.0
 40
3573.56849968132
100
AcDbArc
 50
269.706290894565
 51
270.000108546729
  0
ARC
  5
D8
330
2
100
AcDbEntity
  8
0
  6
Continuous
 62
     7
100
AcDbCircle
 10
8944.329305811811
 20
5540.442882665944
 30
0.0
 40
3565.03922312548
100
AcDbArc
 50
269.9995399638642
 51
270.2940571335896
  0
ARC
  5
D9
330
2
100
AcDbEntity
  8
0
  6
Continuous
 62
     7
100
AcDbCircle
 10
8932.456792284906
 20
2711.820966352383
 30
0.0
 40
737.3982984414999
100
AcDbArc
 50
269.488810169002
 51
269.707958498876
  0
ARC
  5
DA
330
2
100
AcDbEntity
  8
0
  6
Continuous
 62
     7
100
AcDbCircle
 10
8953.478777749081
 20
2372.335812212545
 30
0.0
 40
397.92364263982
100
AcDbArc
 50
270.1663848540114
 51
270.5089284042264
  0
ARC
  5
DB
330
2
100
AcDbEntity
  8
0
  6
Continuous
 62
     7
100
AcDbCircle
 10
8960.57789387085
 20
1984.693661026462
 30
0.0
 40
16.42414656236
100
AcDbArc
 50
269.9905969454448
 51
271.8454054341235
  0
ARC
  5
DC
330
2
100
AcDbEntity
  8
0
  6
Continuous
 62
     7
100
AcDbCircle
 10
8928.014850711592
 20
1984.156185995243
 30
0.0
 40
15.88667532336
100
AcDbArc
 50
268.1232184244147
 51
270.0407205622655
  0
ARC
  5
DD
330
2
100
AcDbEntity
  8
0
  6
Continuous
 62
     7
100
AcDbCircle
 10
8962.808018676554
 20
1974.45854638878
 30
0.0
 40
1.00228602946
100
AcDbArc
 50
0.2064736610005738
 51
89.78129646793496
  0
ARC
  5
DE
330
2
100
AcDbEntity
  8
0
  6
Continuous
 62
     7
100
AcDbCircle
 10
8925.792921487675
 20
1974.458962834478
 30
0.0
 40
1.00184110782
100
AcDbArc
 50
90.18051045458987
 51
179.8071109900052
  0
ARC
  5
DF
330
2
100
AcDbEntity
  8
0
  6
Continuous
 62
     7
100
AcDbCircle
 10
8925.280361430745
 20
1974.940185704903
 30
0.0
 40
0.99815001284
100
AcDbArc
 50
89.96467133245767
 51
180.0292378716043
  0
ARC
  5
E0
330
2
100
AcDbEntity
  8
0
  6
Continuous
 62
     7
100
AcDbCircle
 10
8963.321001922855
 20
1974.940185814115
 30
0.0
 40
0.9981498070999998
100
AcDbArc
 50
359.9629677859868
 51
90.02485881756296
  0
ARC
  5
E1
330
2
100
AcDbEntity
  8
0
  6
Continuous
 62
     7
100
AcDbCircle
 10
8944.300681538411
 20
1766.749734674902
 30
0.0
 40
188.86795061742
100
AcDbArc
 50
84.40226979527325
 51
95.59772825650981
  0
ARC
  5
E2
330
2
100
AcDbEntity
  8
0
  6
Continuous
 62
     7
100
AcDbCircle
 10
8927.170515013942
 20
1950.524191991901
 30
0.0
 40
2.0000000005
100
AcDbArc
 50
90.00093204078149
 51
179.0000000000038
  0
ARC
  5
E3
330
2
100
AcDbEntity
  8
0
  6
Continuous
 62
     7
100
AcDbCircle
 10
8961.430848062821
 20
1950.524191991901
 30
0.0
 40
2.0000000005
100
AcDbArc
 50
0.9999999999961648
 51
89.99896515639576
  0
ARC
  5
E4
330
2
100
AcDbEntity
  8
0
  6
Continuous
 62
     7
100
AcDbCircle
 10
8962.605858341701
 20
1953.516777304658
 30
0.0
 40
1.206000001
100
AcDbArc
 50
2.940391976805584
 51
84.40123507252318
  0
ARC
  5
E5
330
2
100
AcDbEntity
  8
0
  6
Continuous
 62
     7
100
AcDbCircle
 10
8925.995504735062
 20
1953.516777304658
 30
0.0
 40
1.206000001
100
AcDbArc
 50
95.59845982121867
 51
177.0593843179097
  0
ARC
  5
E6
330
2
100
AcDbEntity
  8
0
  6
Continuous
 62
     7
100
AcDbCircle
 10
8913.481482762868
 20
1974.405030257558
 30
0.0
 40
0.9999999989799999
100
AcDbArc
 50
0.1320896060948447
 51
86.99991671725658
  0
ARC
  5
E7
330
2
100
AcDbEntity
  8
0
  6
Continuous
 62
     7
100
AcDbCircle
 10
8944.302334476404
 20
2176.685916945182
 30
0.0
 40
188.88924825834
100
AcDbArc
 50
265.2763756418125
 51
265.9408240387292
  0
ARC
  5
E8
330
2
100
AcDbEntity
  8
0
  6
Continuous
 62
     7
100
AcDbCircle
 10
8944.29994017843
 20
2176.67468288587
 30
0.0
 40
188.8779773106
100
AcDbArc
 50
274.5532195584985
 51
275.1279224743023
  0
ARC
  5
E9
330
2
100
AcDbEntity
  8
0
  6
Continuous
 62
     7
100
AcDbCircle
 10
8944.300522371831
 20
2176.669562322062
 30
0.0
 40
188.87283396554
100
AcDbArc
 50
271.8162536660979
 51
272.9435491725153
  0
ARC
  5
EA
330
2
100
AcDbEntity
  8
0
  6
Continuous
 62
     7
100
AcDbCircle
 10
8944.300681538411
 20
2176.664681140563
 30
0.0
 40
188.86795061742
100
AcDbArc
 50
264.4038635522829
 51
265.2613729911672
  0
ARC
  5
EB
102
{ACAD_REACTORS
330
12B
102
}
330
2
100
AcDbEntity
  8
0
  6
Continuous
 62
     7
100
AcDbCircle
 10
8944.300681538411
 20
2176.664681140563
 30
0.0
 40
188.86795061742
100
AcDbArc
 50
265.2699574382499
 51
272.9711698607623
  0
ARC
  5
EC
330
2
100
AcDbEntity
  8
0
  6
Continuous
 62
     7
100
AcDbCircle
 10
8944.300681538411
 20
2176.664681140563
 30
0.0
 40
188.86795061742
100
AcDbArc
 50
272.9777422137967
 51
273.1215167056403
  0
ARC
  5
ED
330
2
100
AcDbEntity
  8
0
  6
Continuous
 62
     7
100
AcDbCircle
 10
8944.300681538411
 20
2176.664681140563
 30
0.0
 40
188.86795061742
100
AcDbArc
 50
273.1364260138333
 51
274.3084443563077
  0
ARC
  5
EE
330
2
100
AcDbEntity
  8
0
  6
Continuous
 62
     7
100
AcDbCircle
 10
8944.300681538411
 20
2176.664681140563
 30
0.0
 40
188.86795061742
100
AcDbArc
 50
274.5532362064762
 51
275.5576928065379
  0
ARC
  5
EF
330
2
100
AcDbEntity
  8
0
  6
Continuous
 62
     7
100
AcDbCircle
 10
8944.301217788245
 20
2176.653602958507
 30
0.0
 40
188.85686014176
100
AcDbArc
 50
273.1364723688855
 51
273.8595296049327
  0
ARC
  5
F0
330
2
100
AcDbEntity
  8
0
  6
Continuous
 62
     7
100
AcDbCircle
 10
8944.299593768137
 20
2176.653507464671
 30
0.0
 40
188.85672314432
100
AcDbArc
 50
264.4038660543364
 51
265.2614285989905
  0
ARC
  5
F1
330
2
100
AcDbEntity
  8
0
  6
Continuous
 62
     7
100
AcDbCircle
 10
8944.303210042326
 20
2176.638189387606
 30
0.0
 40
188.84133761502
100
AcDbArc
 50
275.1279239916528
 51
275.5577095209873
  0
ARC
  5
F2
330
2
100
AcDbEntity
  8
0
  6
Continuous
 62
     7
100
AcDbCircle
 10
8944.30069773344
 20
2176.612070928288
 30
0.0
 40
187.86767657276
100
AcDbArc
 50
264.402226735149
 51
275.5977267378601
  0
ARC
  5
F3
330
2
100
AcDbEntity
  8
0
  6
Continuous
 62
     7
100
AcDbCircle
 10
8962.605858341701
 20
1989.897638513346
 30
0.0
 40
1.206000001
100
AcDbArc
 50
275.5987649274768
 51
357.0596080231944
  0
ARC
  5
F4
330
2
100
AcDbEntity
  8
0
  6
Continuous
 62
     7
100
AcDbCircle
 10
8925.995504735062
 20
1989.897638513346
 30
0.0
 40
1.206000001
100
AcDbArc
 50
182.9406156820902
 51
264.4015401787813
  0
ARC
  5
F5
330
2
100
AcDbEntity
  8
0
  6
Continuous
 62
     7
100
AcDbCircle
 10
8925.995504526795
 20
1989.845302415331
 30
0.0
 40
0.20602755848
100
AcDbArc
 50
182.9938564340052
 51
264.3426629492827
  0
SPLINE
  5
F6
102
{ACAD_REACTORS
330
154
102
}
330
2
100
AcDbEntity
  8
0
  6
Continuous
 62
     7
100
AcDbSpline
210
0.0
220
0.0
230
1.0
 70
     8
 71
     3
 72
    22
 73
    18
 74
     0
 42
0.0000000001
 43
0.0000000001
 40
0.0
 40
0.0
 40
0.0
 40
0.0
 40
0.1928917563
 40
0.3785716205
 40
0.5499749868000001
 40
0.7007302094
 40
0.7665530789
 40
0.8251512254999999
 40
0.8759908563999999
 40
0.9185820737999998
 40
0.9525324143
 40
0.9661696204000001
 40
0.9775315514
 40
0.9865960268999998
 40
0.9933543431999998
 40
0.9978068373999999
 40
1.0
 40
1.0
 40
1.0
 40
1.0
 10
8961.431042812266
 20
1966.236978414885
 30
0.0
 10
8961.559673832638
 20
1966.236978452982
 30
0.0
 10
8961.812126792265
 20
1966.237401012457
 30
0.0
 10
8962.178876881747
 20
1966.239281392243
 30
0.0
 10
8962.51751915339
 20
1966.24233129724
 30
0.0
 10
8962.776224216414
 20
1966.245866398125
 30
0.0
 10
8962.959695591878
 20
1966.249297049124
 30
0.0
 10
8963.076538980265
 20
1966.251957018403
 30
0.0
 10
8963.177882628221
 20
1966.254783761544
 30
0.0
 10
8963.262773639518
 20
1966.257753412699
 30
0.0
 10
8963.322857641786
 20
1966.260451210199
 30
0.0
 10
8963.362091634943
 20
1966.262764934299
 30
0.0
 10
8963.384771691195
 20
1966.264364608514
 30
0.0
 10
8963.402772711789
 20
1966.266017762437
 30
0.0
 10
8963.416338966137
 20
1966.267516334499
 30
0.0
 10
8963.42487925637
 20
1966.269224723264
 30
0.0
 10
8963.429512538972
 20
1966.270248363582
 30
0.0
 10
8963.430546697429
 20
1966.271282522046
 30
0.0
  0
SPLINE
  5
F7
330
2
100
AcDbEntity
  8
0
  6
Continuous
 62
     7
100
AcDbSpline
210
0.0
220
0.0
230
1.0
 70
     8
 71
     3
 72
    22
 73
    18
 74
     0
 42
0.0000000001
 43
0.0000000001
 40
0.0
 40
0.0
 40
0.0
 40
0.0
 40
0.0021933419
 40
0.0066463516
 40
0.0134054088
 40
0.0224707402
 40
0.0338335332
 40
0.0474715343
 40
0.0814232072
 40
0.1240153457
 40
0.1748554556
 40
0.2334536964
 40
0.2992763334
 40
0.4500303095
 40
0.6214317386000001
 40
0.8071095999
 40
1.0
 40
1.0
 40
1.0
 40
1.0
 10
8925.170817049915
 20
1966.271281854018
 30
0.0
 10
8925.171851274409
 20
1966.270247626979
 30
0.0
 10
8925.176485062456
 20
1966.269224159377
 30
0.0
 10
8925.185026074087
 20
1966.267515732523
 30
0.0
 10
8925.198593529783
 20
1966.266017256983
 30
0.0
 10
8925.216595830596
 20
1966.264364131
 30
0.0
 10
8925.239277133947
 20
1966.262764512658
 30
0.0
 10
8925.278512361543
 20
1966.260450867298
 30
0.0
 10
8925.338597235063
 20
1966.257753156163
 30
0.0
 10
8925.423488419092
 20
1966.254783591359
 30
0.0
 10
8925.524831099314
 20
1966.251956926958
 30
0.0
 10
8925.641672448048
 20
1966.249297031341
 30
0.0
 10
8925.825139335382
 20
1966.245866474319
 30
0.0
 10
8926.08383709838
 20
1966.242331439478
 30
0.0
 10
8926.422469334498
 20
1966.23928153956
 30
0.0
 10
8926.789208771191
 20
1966.23740108104
 30
0.0
 10
8927.041654585856
 20
1966.236978450442
 30
0.0
 10
8927.170282205155
 20
1966.236978414885
 30
0.0
  0
LINE
  5
F8
330
2
100
AcDbEntity
  8
0
  6
Continuous
 62
     7
100
AcDbLine
 10
8934.159241539335
 20
1974.429716667424
 30
0.0
 11
8937.219616007871
 21
1974.4123712284
 31
0.0
  0
SPLINE
  5
F9
330
2
100
AcDbEntity
  8
0
  6
Continuous
 62
     7
100
AcDbSpline
210
0.0
220
0.0
230
1.0
 70
     8
 71
     3
 72
     9
 73
     5
 74
     0
 42
0.0000000001
 43
0.0000000001
 40
0.0
 40
0.0
 40
0.0
 40
0.0
 40
0.2474896583
 40
1.0
 40
1.0
 40
1.0
 40
1.0
 10
8963.320723734472
 20
1975.938335527238
 30
0.0
 10
8963.279964151237
 20
1975.897677348463
 30
0.0
 10
8963.110984819385
 20
1975.737770693422
 30
0.0
 10
8962.934216506456
 20
1975.585970903036
 30
0.0
 10
8962.811843517757
 20
1975.46080283994
 30
0.0
  0
SPLINE
  5
FA
330
2
100
AcDbEntity
  8
0
  6
Continuous
 62
     7
100
AcDbSpline
210
0.0
220
0.0
230
1.0
 70
     8
 71
     3
 72
    14
 73
    10
 74
     0
 42
0.0000000001
 43
0.0000000001
 40
0.0
 40
0.0
 40
0.0
 40
0.0
 40
0.0289240986
 40
0.0910742253
 40
0.186352465
 40
0.3099822461
 40
0.4566766322
 40
0.6235744264000001
 40
1.0
 40
1.0
 40
1.0
 40
1.0
 10
8962.811836928999
 20
1975.46080289074
 30
0.0
 10
8962.810578696805
 20
1975.459517620258
 30
0.0
 10
8962.804496821739
 20
1975.458555981337
 30
0.0
 10
8962.793458692988
 20
1975.456598609084
 30
0.0
 10
8962.775821329207
 20
1975.455245109124
 30
0.0
 10
8962.75321876071
 20
1975.453754571079
 30
0.0
 10
8962.726026833898
 20
1975.452532866644
 30
0.0
 10
8962.683151839675
 20
1975.451166001201
 30
0.0
 10
8962.64935963647
 20
1975.45073153166
 30
0.0
 10
8962.625952121682
 20
1975.450611265196
 30
0.0
  0
SPLINE
  5
FB
330
2
100
AcDbEntity
  8
0
  6
Continuous
 62
     7
100
AcDbSpline
210
0.0
220
0.0
230
1.0
 70
     8
 71
     3
 72
    14
 73
    10
 74
     0
 42
0.0000000001
 43
0.0000000001
 40
0.0
 40
0.0
 40
0.0
 40
0.0
 40
0.3759358697
 40
0.5443777724000001
 40
0.6922176443000002
 40
0.8143291631999998
 40
0.907777354
 40
0.9702554787
 40
1.0
 40
1.0
 40
1.0
 40
1.0
 10
8925.975194580093
 20
1975.450610947702
 30
0.0
 10
8925.951874888353
 20
1975.450732181898
 30
0.0
 10
8925.918100896957
 20
1975.451205005442
 30
0.0
 10
8925.875194023184
 20
1975.452537225284
 30
0.0
 10
8925.847994042005
 20
1975.453716051978
 30
0.0
 10
8925.825582987014
 20
1975.45522141854
 30
0.0
 10
8925.808185605008
 20
1975.456612055839
 30
0.0
 10
8925.797219850934
 20
1975.458592039178
 30
0.0
 10
8925.791062083238
 20
1975.459486401118
 30
0.0
 10
8925.789758169146
 20
1975.460791862062
 30
0.0
  0
SPLINE
  5
FC
330
2
100
AcDbEntity
  8
0
  6
Continuous
 62
     7
100
AcDbSpline
210
0.0
220
0.0
230
1.0
 70
     8
 71
     3
 72
     9
 73
     5
 74
     0
 42
0.0000000001
 43
0.0000000001
 40
0.0
 40
0.0
 40
0.0
 40
0.0
 40
0.2457487244
 40
1.0
 40
1.0
 40
1.0
 40
1.0
 10
8925.789785817029
 20
1975.460791938263
 30
0.0
 10
8925.749761660375
 20
1975.501617972944
 30
0.0
 10
8925.581947043012
 20
1975.662842453641
 30
0.0
 10
8925.404919718593
 20
1975.81425675838
 30
0.0
 10
8925.280841099619
 20
1975.938335506924
 30
0.0
  0
SPLINE
  5
FD
330
2
100
AcDbEntity
  8
0
  6
Continuous
 62
     7
100
AcDbSpline
210
0.0
220
0.0
230
1.0
 70
     8
 71
     3
 72
    16
 73
    12
 74
     0
 42
0.0000000001
 43
0.0000000001
 40
0.0
 40
0.0
 40
0.0
 40
0.0
 40
0.189041323
 40
0.3772462128
 40
0.5532844209000001
 40
0.7068047057
 40
0.8292063626999999
 40
0.9178268576999998
 40
0.9727952537
 40
0.9892869562999999
 40
1.0
 40
1.0
 40
1.0
 40
1.0
 10
8962.723509020838
 20
1974.449248119339
 30
0.0
 10
8962.723201304903
 20
1974.513077120458
 30
0.0
 10
8962.721376002502
 20
1974.640450299799
 30
0.0
 10
8962.715171420013
 20
1974.827173388376
 30
0.0
 10
8962.705334596915
 20
1975.0017478627
 30
0.0
 10
8962.692738165406
 20
1975.153820167137
 30
0.0
 10
8962.677997161135
 20
1975.276156488378
 30
0.0
 10
8962.662280921298
 20
1975.364435874939
 30
0.0
 10
8962.648094927306
 20
1975.4170966002
 30
0.0
 10
8962.635531795207
 20
1975.441805009004
 30
0.0
 10
8962.629144093979
 20
1975.448909218817
 30
0.0
 10
8962.625952294443
 20
1975.450611265196
 30
0.0
  0
SPLINE
  5
FE
330
2
100
AcDbEntity
  8
0
  6
Continuous
 62
     7
100
AcDbSpline
210
0.0
220
0.0
230
1.0
 70
     8
 71
     3
 72
    16
 73
    12
 74
     0
 42
0.0000000001
 43
0.0000000001
 40
0.0
 40
0.0
 40
0.0
 40
0.0
 40
0.3774814867
 40
0.5462332349
 40
0.6944257702
 40
0.8171827035999999
 40
0.9107961149999999
 40
0.9457558368999999
 40
0.9723954211
 40
0.9905228056
 40
1.0
 40
1.0
 40
1.0
 40
1.0
 10
8962.723517446018
 20
1974.449260042102
 30
0.0
 10
8962.860268277374
 20
1974.450952581262
 30
0.0
 10
8963.05816226819
 20
1974.452686283659
 30
0.0
 10
8963.309747525778
 20
1974.454138663279
 30
0.0
 10
8963.469049114701
 20
1974.455106487099
 30
0.0
 10
8963.601121550597
 20
1974.456397124597
 30
0.0
 10
8963.692174322492
 20
1974.457774025579
 30
0.0
 10
8963.748384365024
 20
1974.459134081286
 30
0.0
 10
8963.777270664895
 20
1974.459973802741
 30
0.0
 10
8963.796872665318
 20
1974.460989696063
 30
0.0
 10
8963.806893633325
 20
1974.461543944375
 30
0.0
 10
8963.810270573475
 20
1974.462165037885
 30
0.0
  0
LINE
  5
FF
330
2
100
AcDbEntity
  8
0
  6
Continuous
 62
     7
100
AcDbLine
 10
8928.726427147219
 20
1974.432202225058
 30
0.0
 11
8928.747384390005
 21
1974.429727830722
 31
0.0
  0
SPLINE
  5
100
330
2
100
AcDbEntity
  8
0
  6
Continuous
 62
     7
100
AcDbSpline
210
0.0
220
0.0
230
1.0
 70
     8
 71
     3
 72
     9
 73
     5
 74
     0
 42
0.0000000001
 43
0.0000000001
 40
0.0
 40
0.0
 40
0.0
 40
0.0
 40
0.2455130595
 40
1.0
 40
1.0
 40
1.0
 40
1.0
 10
8963.810270598882
 20
1974.46215643998
 30
0.0
 10
8963.850198509895
 20
1974.502994206925
 30
0.0
 10
8964.017855507551
 20
1974.664365121158
 30
0.0
 10
8964.194889253061
 20
1974.815734566962
 30
0.0
 10
8964.319151544563
 20
1974.939689089182
 30
0.0
  0
SPLINE
  5
101
330
2
100
AcDbEntity
  8
0
  6
Continuous
 62
     7
100
AcDbSpline
210
0.0
220
0.0
230
1.0
 70
     8
 71
     3
 72
    18
 73
    14
 74
     0
 42
0.0000000001
 43
0.0000000001
 40
0.0
 40
0.0
 40
0.0
 40
0.0
 40
0.0081179406
 40
0.0252612912
 40
0.0513558417
 40
0.0861664013
 40
0.1293812876
 40
0.1806111008
 40
0.3051435908
 40
0.4552071199000001
 40
0.625268057
 40
0.80914554
 40
1.0
 40
1.0
 40
1.0
 40
1.0
 10
8962.074282501152
 20
1970.072643829635
 30
0.0
 10
8962.070653110389
 20
1970.074458674886
 30
0.0
 10
8962.057670309292
 20
1970.075461830101
 30
0.0
 10
8962.032456214449
 20
1970.078328314079
 30
0.0
 10
8961.993323478408
 20
1970.080277680261
 30
0.0
 10
8961.941401468994
 20
1970.082672831684
 30
0.0
 10
8961.876800257069
 20
1970.084811107818
 30
0.0
 10
8961.767394369697
 20
1970.087810141698
 30
0.0
 10
8961.604547847555
 20
1970.090979086339
 30
0.0
 10
8961.382303519375
 20
1970.093987505521
 30
0.0
 10
8961.130380319865
 20
1970.096222774098
 30
0.0
 10
8960.858062490119
 20
1970.097604683959
 30
0.0
 10
8960.670748081929
 20
1970.097914449661
 30
0.0
 10
8960.575347236384
 20
1970.097914449661
 30
0.0
  0
SPLINE
  5
102
330
2
100
AcDbEntity
  8
0
  6
Continuous
 62
     7
100
AcDbSpline
210
0.0
220
0.0
230
1.0
 70
     8
 71
     3
 72
    18
 73
    14
 74
     0
 42
0.0000000001
 43
0.0000000001
 40
0.0
 40
0.0
 40
0.0
 40
0.0
 40
0.190854895
 40
0.3747337638
 40
0.5447963187
 40
0.6948610551000001
 40
0.8193938951999999
 40
0.8706234187999999
 40
0.9138376223000001
 40
0.9486471316999999
 40
0.9747403465000001
 40
0.9918824412999999
 40
1.0
 40
1.0
 40
1.0
 40
1.0
 10
8928.02605814664
 20
1970.097914449661
 30
0.0
 10
8927.93065433946
 20
1970.097914449661
 30
0.0
 10
8927.743333629504
 20
1970.097604780474
 30
0.0
 10
8927.47100624174
 20
1970.096222962065
 30
0.0
 10
8927.219073687473
 20
1970.093987711263
 30
0.0
 10
8926.996821373494
 20
1970.090979253977
 30
0.0
 10
8926.833969532566
 20
1970.087810228064
 30
0.0
 10
8926.724560802973
 20
1970.084811107818
 30
0.0
 10
8926.65995875539
 20
1970.082672745318
 30
0.0
 10
8926.608036758636
 20
1970.080277578659
 30
0.0
 10
8926.568904792217
 20
1970.078328006742
 30
0.0
 10
8926.543691312046
 20
1970.075461705639
 30
0.0
 10
8926.530709163747
 20
1970.074458098302
 30
0.0
 10
8926.527079770455
 20
1970.072643425783
 30
0.0
  0
LINE
  5
103
330
2
100
AcDbEntity
  8
0
  6
Continuous
 62
     7
100
AcDbLine
 10
8924.282211567795
 20
1969.98696318058
 30
0.0
 11
8924.791089109811
 21
1970.145992456122
 31
0.0
  0
SPLINE
  5
104
330
2
100
AcDbEntity
  8
0
  6
Continuous
 62
     7
100
AcDbSpline
210
0.0
220
0.0
230
1.0
 70
     8
 71
     3
 72
    17
 73
    13
 74
     0
 42
0.0000000001
 43
0.0000000001
 40
0.0
 40
0.0
 40
0.0
 40
0.0
 40
0.0095729886
 40
0.0277301466
 40
0.0543839392
 40
0.0893481189
 40
0.1830098735
 40
0.3058035188
 40
0.4538782111
 40
0.6225199181000001
 40
0.8065692002
 40
1.0
 40
1.0
 40
1.0
 40
1.0
 10
8924.791089109811
 20
1970.145992456122
 30
0.0
 10
8924.794373820038
 20
1970.147108603242
 30
0.0
 10
8924.80447014479
 20
1970.148209383356
 30
0.0
 10
8924.824015178131
 20
1970.15009044386
 30
0.0
 10
8924.852920997883
 20
1970.151703732475
 30
0.0
 10
8924.909113900442
 20
1970.154263475897
 30
0.0
 10
8925.000205321001
 20
1970.15696257134
 30
0.0
 10
8925.132271076694
 20
1970.159773287081
 30
0.0
 10
8925.291531647202
 20
1970.162135022258
 30
0.0
 10
8925.472994512613
 20
1970.164006954002
 30
0.0
 10
8925.670900591239
 20
1970.16529954476
 30
0.0
 10
8925.80769544595
 20
1970.16574407778
 30
0.0
 10
8925.877792920681
 20
1970.165864014039
 30
0.0
  0
SPLINE
  5
105
330
2
100
AcDbEntity
  8
0
  6
Continuous
 62
     7
100
AcDbSpline
210
0.0
220
0.0
230
1.0
 70
     8
 71
     3
 72
    17
 73
    13
 74
     0
 42
0.0000000001
 43
0.0000000001
 40
0.0
 40
0.0
 40
0.0
 40
0.0
 40
0.193431317
 40
0.377480959
 40
0.5461229102000001
 40
0.6941977005
 40
0.8169912838
 40
0.9106527938999999
 40
0.9456168018000001
 40
0.9722703943999999
 40
0.9904273181
 40
1.0
 40
1.0
 40
1.0
 40
1.0
 10
8962.723573963533
 20
1970.165864008961
 30
0.0
 10
8962.793671397633
 20
1970.165744065076
 30
0.0
 10
8962.930466125337
 20
1970.165299526978
 30
0.0
 10
8963.128371967785
 20
1970.164006928602
 30
0.0
 10
8963.309834497918
 20
1970.162134984161
 30
0.0
 10
8963.469094651834
 20
1970.159773241359
 30
0.0
 10
8963.601159902053
 20
1970.156962515461
 30
0.0
 10
8963.692250855263
 20
1970.154263420018
 30
0.0
 10
8963.748443346352
 20
1970.15170366136
 30
0.0
 10
8963.777348861297
 20
1970.15009039052
 30
0.0
 10
8963.796893541552
 20
1970.148209299537
 30
0.0
 10
8963.806989663131
 20
1970.147108565137
 30
0.0
 10
8963.81027423107
 20
1970.14599238246
 30
0.0
  0
LINE
  5
106
330
2
100
AcDbEntity
  8
0
  6
Continuous
 62
     7
100
AcDbLine
 10
8963.81027423107
 20
1970.14599238246
 30
0.0
 11
8964.319151508997
 21
1969.98696318058
 31
0.0
  0
SPLINE
  5
107
330
2
100
AcDbEntity
  8
0
  6
Continuous
 62
     7
100
AcDbSpline
210
0.0
220
0.0
230
1.0
 70
     8
 71
     3
 72
    18
 73
    14
 74
     0
 42
0.0000000001
 43
0.0000000001
 40
0.0
 40
0.0
 40
0.0
 40
0.0
 40
0.2058048201
 40
0.3956220434
 40
0.5649968792
 40
0.7104398292000001
 40
0.8288811597
 40
0.8771273993000001
 40
0.9177241836
 40
0.950446889
 40
0.9751131779000001
 40
0.9916363581999998
 40
1.0
 40
1.0
 40
1.0
 40
1.0
 10
8961.106808700769
 20
1968.278032773198
 30
0.0
 10
8961.173222657349
 20
1968.27847213478
 30
0.0
 10
8961.300890278563
 20
1968.279496826655
 30
0.0
 10
8961.483209291614
 20
1968.281560617297
 30
0.0
 10
8961.646042499076
 20
1968.284049692842
 30
0.0
 10
8961.785829631258
 20
1968.286911058721
 30
0.0
 10
8961.886525045814
 20
1968.289666844417
 30
0.0
 10
8961.953367645179
 20
1968.292126956339
 30
0.0
 10
8961.99257247915
 20
1968.293861588385
 30
0.0
 10
8962.024109152173
 20
1968.295696804418
 30
0.0
 10
8962.047983254768
 20
1968.29734378106
 30
0.0
 10
8962.063709359961
 20
1968.299336426296
 30
0.0
 10
8962.071867311662
 20
1968.300396233675
 30
0.0
 10
8962.07428136322
 20
1968.301603361064
 30
0.0
  0
SPLINE
  5
108
330
2
100
AcDbEntity
  8
0
  6
Continuous
 62
     7
100
AcDbSpline
210
0.0
220
0.0
230
1.0
 70
     8
 71
     3
 72
    17
 73
    13
 74
     0
 42
0.0000000001
 43
0.0000000001
 40
0.0
 40
0.0
 40
0.0
 40
0.0
 40
0.1825639857
 40
0.358989255
 40
0.5233106225000001
 40
0.6701212009000001
 40
0.794549503
 40
0.8925971015
 40
0.9307859305
 40
0.9614256579
 40
0.9844245663999998
 40
1.0
 40
1.0
 40
1.0
 40
1.0
 10
8961.430863473008
 20
1968.120783956381
 30
0.0
 10
8961.552822992871
 20
1968.12078414688
 30
0.0
 10
8961.792645551057
 20
1968.122688158817
 30
0.0
 10
8962.142150457857
 20
1968.131190585302
 30
0.0
 10
8962.467580368331
 20
1968.145016450458
 30
0.0
 10
8962.757996739524
 20
1968.163579433402
 30
0.0
 10
8963.003664874031
 20
1968.186230526016
 30
0.0
 10
8963.176444167762
 20
1968.208939154721
 30
0.0
 10
8963.285963676982
 20
1968.22974616162
 30
0.0
 10
8963.345643826844
 20
1968.244418303979
 30
0.0
 10
8963.389343236512
 20
1968.259281434018
 30
0.0
 10
8963.412663499763
 20
1968.271252624205
 30
0.0
 10
8963.420556082416
 20
1968.278032778284
 30
0.0
  0
LINE
  5
109
330
2
100
AcDbEntity
  8
0
  6
Continuous
 62
     7
100
AcDbLine
 10
8963.420556062102
 20
1968.278032773198
 30
0.0
 11
8963.43054358847
 21
1968.280960697239
 31
0.0
  0
SPLINE
  5
10A
330
2
100
AcDbEntity
  8
0
  6
Continuous
 62
     7
100
AcDbSpline
210
0.0
220
0.0
230
1.0
 70
     8
 71
     3
 72
     9
 73
     5
 74
     0
 42
0.0000000001
 43
0.0000000001
 40
0.0
 40
0.0
 40
0.0
 40
0.0
 40
0.2503721628
 40
1.0
 40
1.0
 40
1.0
 40
1.0
 10
8944.300685198509
 20
1970.181585186556
 30
0.0
 10
8942.763158072947
 20
1970.181585184024
 30
0.0
 10
8936.622191396248
 20
1970.180275816559
 30
0.0
 10
8930.481225806779
 20
1970.173739499938
 30
0.0
 10
8925.877792920681
 20
1970.165864014039
 30
0.0
  0
SPLINE
  5
10B
330
2
100
AcDbEntity
  8
0
  6
Continuous
 62
     7
100
AcDbSpline
210
0.0
220
0.0
230
1.0
 70
     8
 71
     3
 72
     9
 73
     5
 74
     0
 42
0.0000000001
 43
0.0000000001
 40
0.0
 40
0.0
 40
0.0
 40
0.0
 40
0.2494764765
 40
1.0
 40
1.0
 40
1.0
 40
1.0
 10
8962.723573963533
 20
1970.165864008961
 30
0.0
 10
8961.191549750479
 20
1970.168484973999
 30
0.0
 10
8955.0505909631
 20
1970.177667343241
 30
0.0
 10
8948.909624324526
 20
1970.181585189102
 30
0.0
 10
8944.300685198509
 20
1970.181585186556
 30
0.0
  0
LINE
  5
10C
330
2
100
AcDbEntity
  8
0
  6
Continuous
 62
     7
100
AcDbLine
 10
8954.090360597559
 20
1974.412471233279
 30
0.0
 11
8953.99944006564
 21
1974.409956905061
 31
0.0
  0
SPLINE
  5
10D
330
2
100
AcDbEntity
  8
0
  6
Continuous
 62
     7
100
AcDbSpline
210
0.0
220
0.0
230
1.0
 70
     8
 71
     3
 72
    16
 73
    12
 74
     0
 42
0.0000000001
 43
0.0000000001
 40
0.0
 40
0.0
 40
0.0
 40
0.0
 40
0.3775587281
 40
0.5462428019
 40
0.6943532952
 40
0.8171701268999999
 40
0.9108344914999999
 40
0.9457889737999998
 40
0.9724220168
 40
0.9905347465
 40
1.0
 40
1.0
 40
1.0
 40
1.0
 10
8925.877852021422
 20
1974.452018235717
 30
0.0
 10
8925.741065083883
 20
1974.452132446817
 30
0.0
 10
8925.543165164734
 20
1974.452740840317
 30
0.0
 10
8925.291609576929
 20
1974.454100598845
 30
0.0
 10
8925.132345168497
 20
1974.455345173441
 30
0.0
 10
8925.000265986394
 20
1974.456794680324
 30
0.0
 10
8924.909177512246
 20
1974.45817122824
 30
0.0
 10
8924.852951927427
 20
1974.459473217002
 30
0.0
 10
8924.824076387009
 20
1974.460273446539
 30
0.0
 10
8924.804480604533
 20
1974.461232906136
 30
0.0
 10
8924.794472516861
 20
1974.46175549082
 30
0.0
 10
8924.791092744559
 20
1974.462335621736
 30
0.0
  0
SPLINE
  5
10E
330
2
100
AcDbEntity
  8
0
  6
Continuous
 62
     7
100
AcDbSpline
210
0.0
220
0.0
230
1.0
 70
     8
 71
     3
 72
    16
 73
    12
 74
     0
 42
0.0000000001
 43
0.0000000001
 40
0.0
 40
0.0
 40
0.0
 40
0.0
 40
0.0108056879
 40
0.0274510708
 40
0.0828788778
 40
0.1720569222
 40
0.2949057141
 40
0.4485610216
 40
0.6243391052
 40
0.8118765356999999
 40
1.0
 40
1.0
 40
1.0
 40
1.0
 10
8925.975410784882
 20
1975.450611265196
 30
0.0
 10
8925.972200179179
 20
1975.44889920614
 30
0.0
 10
8925.965783588003
 20
1975.441736533141
 30
0.0
 10
8925.953183559814
 20
1975.416869468319
 30
0.0
 10
8925.938974083573
 20
1975.363957250041
 30
0.0
 10
8925.923262994849
 20
1975.275426908943
 30
0.0
 10
8925.908549514014
 20
1975.15304005948
 30
0.0
 10
8925.89600050938
 20
1975.001273804717
 30
0.0
 10
8925.886211323984
 20
1974.827443083037
 30
0.0
 10
8925.880027013246
 20
1974.641852374722
 30
0.0
 10
8925.87819027068
 20
1974.515361756481
 30
0.0
 10
8925.877867779545
 20
1974.452016439938
 30
0.0
  0
SPLINE
  5
10F
330
2
100
AcDbEntity
  8
0
  6
Continuous
 62
     7
100
AcDbSpline
210
0.0
220
0.0
230
1.0
 70
     8
 71
     3
 72
     9
 73
     5
 74
     0
 42
0.0000000001
 43
0.0000000001
 40
0.0
 40
0.0
 40
0.0
 40
0.0
 40
0.2477178406
 40
1.0
 40
1.0
 40
1.0
 40
1.0
 10
8924.282211504291
 20
1974.939823010676
 30
0.0
 10
8924.322955875393
 20
1974.8990784211
 30
0.0
 10
8924.491782012246
 20
1974.739019622599
 30
0.0
 10
8924.668590426731
 20
1974.587299082757
 30
0.0
 10
8924.791092780123
 20
1974.462343764981
 30
0.0
  0
LINE
  5
110
330
2
100
AcDbEntity
  8
0
  6
Continuous
 62
     7
100
AcDbLine
 10
8925.170819488291
 20
1968.280960697239
 30
0.0
 11
8925.180807024849
 21
1968.278032770659
 31
0.0
  0
SPLINE
  5
111
330
2
100
AcDbEntity
  8
0
  6
Continuous
 62
     7
100
AcDbSpline
210
0.0
220
0.0
230
1.0
 70
     8
 71
     3
 72
    17
 73
    13
 74
     0
 42
0.0000000001
 43
0.0000000001
 40
0.0
 40
0.0
 40
0.0
 40
0.0
 40
0.0155758724
 40
0.038576824
 40
0.0692217181
 40
0.1074174106
 40
0.2054737539
 40
0.3299062339
 40
0.4767212497
 40
0.6410417182
 40
0.8174447854
 40
1.0
 40
1.0
 40
1.0
 40
1.0
 10
8925.18080701469
 20
1968.278032768119
 30
0.0
 10
8925.188699818329
 20
1968.271252423541
 30
0.0
 10
8925.212021806215
 20
1968.259280834582
 30
0.0
 10
8925.255726128261
 20
1968.244416442163
 30
0.0
 10
8925.315415604996
 20
1968.229742707221
 30
0.0
 10
8925.424949015605
 20
1968.208934620825
 30
0.0
 10
8925.597741629109
 20
1968.186226083564
 30
0.0
 10
8925.843421389229
 20
1968.163575204302
 30
0.0
 10
8926.133842939449
 20
1968.145012909701
 30
0.0
 10
8926.459260416651
 20
1968.131188995258
 30
0.0
 10
8926.808744007718
 20
1968.122687894656
 30
0.0
 10
8927.048545847148
 20
1968.120784129098
 30
0.0
 10
8927.170499494527
 20
1968.120783956381
 30
0.0
  0
SPLINE
  5
112
330
2
100
AcDbEntity
  8
0
  6
Continuous
 62
     7
100
AcDbSpline
210
0.0
220
0.0
230
1.0
 70
     8
 71
     3
 72
    18
 73
    14
 74
     0
 42
0.0000000001
 43
0.0000000001
 40
0.0
 40
0.0
 40
0.0
 40
0.0
 40
0.0083648275
 40
0.0248904624
 40
0.0495596119
 40
0.0822847977
 40
0.1228834426
 40
0.1711309361
 40
0.2895730604
 40
0.4350148032
 40
0.6043867182
 40
0.7941995217
 40
1.0
 40
1.0
 40
1.0
 40
1.0
 10
8926.52708298864
 20
1968.301602723522
 30
0.0
 10
8926.529497403386
 20
1968.300395530105
 30
0.0
 10
8926.53765651333
 20
1968.299335933539
 30
0.0
 10
8926.553384546362
 20
1968.297343257823
 30
0.0
 10
8926.577260942632
 20
1968.295696390401
 30
0.0
 10
8926.608799622274
 20
1968.29386120484
 30
0.0
 10
8926.648005865889
 20
1968.29212663122
 30
0.0
 10
8926.714849052016
 20
1968.289666613282
 30
0.0
 10
8926.815543714733
 20
1968.286910916484
 30
0.0
 10
8926.955328355161
 20
1968.284049629344
 30
0.0
 10
8927.118157150657
 20
1968.281560614758
 30
0.0
 10
8927.300470545244
 20
1968.279496819044
 30
0.0
 10
8927.428134043989
 20
1968.278472122076
 30
0.0
 10
8927.494545922874
 20
1968.278032770659
 30
0.0
  0
LINE
  5
113
330
2
100
AcDbEntity
  8
0
  6
Continuous
 62
     7
100
AcDbLine
 10
8961.181786790573
 20
1974.436613773259
 30
0.0
 11
8962.592164345721
 21
1974.447930580698
 31
0.0
  0
SPLINE
  5
114
330
2
100
AcDbEntity
  8
0
  6
Continuous
 62
     7
100
AcDbSpline
210
0.0
220
0.0
230
1.0
 70
     8
 71
     3
 72
    10
 73
     6
 74
     0
 42
0.0000000001
 43
0.0000000001
 40
0.0
 40
0.0
 40
0.0
 40
0.0
 40
0.0432903634
 40
0.5216451835
 40
1.0
 40
1.0
 40
1.0
 40
1.0
 10
8963.810273994862
 20
1953.57857489506
 30
0.0
 10
8963.817030427858
 20
1953.447073471501
 30
0.0
 10
8963.899292701764
 20
1951.862538489697
 30
0.0
 10
8964.074950016188
 20
1948.825939922319
 30
0.0
 10
8964.243003060834
 20
1945.920796812121
 30
0.0
 10
8964.319151496278
 20
1944.467798107764
 30
0.0
  0
SPLINE
  5
115
330
2
100
AcDbEntity
  8
0
  6
Continuous
 62
     7
100
AcDbSpline
210
0.0
220
0.0
230
1.0
 70
     8
 71
     3
 72
    10
 73
     6
 74
     0
 42
0.0000000001
 43
0.0000000001
 40
0.0
 40
0.0
 40
0.0
 40
0.0
 40
0.4783545947
 40
0.9567091929000001
 40
1.0
 40
1.0
 40
1.0
 40
1.0
 10
8924.282211583017
 20
1944.467798107764
 30
0.0
 10
8924.358360018461
 20
1945.920796812121
 30
0.0
 10
8924.526413063107
 20
1948.825939922319
 30
0.0
 10
8924.702070456316
 20
1951.86253989686
 30
0.0
 10
8924.7843327962
 20
1953.447076288359
 30
0.0
 10
8924.791089300354
 20
1953.57857912162
 30
0.0
  0
LINE
  5
116
330
2
100
AcDbEntity
  8
0
  6
Continuous
 62
     7
100
AcDbLine
 10
8914.209010439135
 20
1974.429716667424
 30
0.0
 11
8914.348695135613
 21
1974.4123712284
 31
0.0
  0
LINE
  5
117
330
2
100
AcDbEntity
  8
0
  6
Continuous
 62
     7
100
AcDbLine
 10
8913.838253786696
 20
1974.432202225058
 30
0.0
 11
8913.839986673785
 21
1974.429727830722
 31
0.0
  0
SPLINE
  5
118
330
2
100
AcDbEntity
  8
0
  6
Continuous
 62
     7
100
AcDbSpline
210
0.0
220
0.0
230
1.0
 70
     8
 71
     3
 72
    18
 73
    14
 74
     0
 42
0.0000000001
 43
0.0000000001
 40
0.0
 40
0.0
 40
0.0
 40
0.0
 40
0.1942698325
 40
0.3811614643
 40
0.5532640277000001
 40
0.7041969147
 40
0.8281569037
 40
0.8785274984999999
 40
0.9204980925
 40
0.9537267393
 40
0.9779281423
 40
0.9930737668999999
 40
1.0
 40
1.0
 40
1.0
 40
1.0
 10
8912.442453141698
 20
1974.462335550621
 30
0.0
 10
8912.445834338866
 20
1974.527122251124
 30
0.0
 10
8912.45184130428
 20
1974.654269111381
 30
0.0
 10
8912.458677790445
 20
1974.838902742618
 30
0.0
 10
8912.463024672815
 20
1975.00914221418
 30
0.0
 10
8912.464747445595
 20
1975.158395720596
 30
0.0
 10
8912.463967530985
 20
1975.267053656704
 30
0.0
 10
8912.461736920752
 20
1975.339209120722
 30
0.0
 10
8912.459459528818
 20
1975.38118625292
 30
0.0
 10
8912.456816994087
 20
1975.414010048082
 30
0.0
 10
8912.453176942941
 20
1975.438647319106
 30
0.0
 10
8912.450244192932
 20
1975.452566925496
 30
0.0
 10
8912.44590713779
 20
1975.460674000979
 30
0.0
 10
8912.443597386298
 20
1975.460795809218
 30
0.0
  0
SPLINE
  5
119
330
2
100
AcDbEntity
  8
0
  6
Continuous
 62
     7
100
AcDbSpline
210
0.0
220
0.0
230
1.0
 70
     8
 71
     3
 72
    12
 73
     8
 74
     0
 42
0.0000000001
 43
0.0000000001
 40
0.0
 40
0.0
 40
0.0
 40
0.0
 40
0.2252569816
 40
0.4777667831000001
 40
0.6104266933
 40
0.7436159495999999
 40
1.0
 40
1.0
 40
1.0
 40
1.0
 10
8912.637930083754
 20
1975.450611265196
 30
0.0
 10
8912.750980535809
 20
1975.444686539939
 30
0.0
 10
8912.99032155066
 20
1975.39024992542
 30
0.0
 10
8913.252134064878
 20
1975.215030913396
 30
0.0
 10
8913.417834802819
 20
1975.011985741645
 30
0.0
 10
8913.542317363081
 20
1974.779453115518
 30
0.0
 10
8913.580884773862
 20
1974.580865303406
 30
0.0
 10
8913.58082496194
 20
1974.452016439938
 30
0.0
  0
LINE
  5
11A
330
2
100
AcDbEntity
  8
0
  6
Continuous
 62
     7
100
AcDbLine
 10
8913.580823420165
 20
1974.452016577104
 30
0.0
 11
8913.835918231312
 21
1974.432246796977
 31
0.0
  0
SPLINE
  5
11B
330
2
100
AcDbEntity
  8
0
  6
Continuous
 62
     7
100
AcDbSpline
210
0.0
220
0.0
230
1.0
 70
     8
 71
     3
 72
    10
 73
     6
 74
     0
 42
0.0000000001
 43
0.0000000001
 40
0.0
 40
0.0
 40
0.0
 40
0.0
 40
0.0432973545
 40
0.5216486868
 40
1.0
 40
1.0
 40
1.0
 40
1.0
 10
8963.810270573475
 20
1989.835774334304
 30
0.0
 10
8963.817028124115
 20
1989.967297954925
 30
0.0
 10
8963.899291419071
 20
1991.551855138863
 30
0.0
 10
8964.074950013655
 20
1994.588475847424
 30
0.0
 10
8964.24300305574
 20
1997.493618909368
 30
0.0
 10
8964.319151488654
 20
1998.946617565471
 30
0.0
  0
SPLINE
  5
11C
330
2
100
AcDbEntity
  8
0
  6
Continuous
 62
     7
100
AcDbSpline
210
0.0
220
0.0
230
1.0
 70
     8
 71
     3
 72
    10
 73
     6
 74
     0
 42
0.0000000001
 43
0.0000000001
 40
0.0
 40
0.0
 40
0.0
 40
0.0
 40
0.4783510668
 40
0.9567021518
 40
1.0
 40
1.0
 40
1.0
 40
1.0
 10
8924.282211590641
 20
1998.946617573088
 30
0.0
 10
8924.358360023553
 20
1997.493618914446
 30
0.0
 10
8924.526413065668
 20
1994.588475847424
 30
0.0
 10
8924.702071749136
 20
1991.551853571687
 30
0.0
 10
8924.784335117783
 20
1989.967294820566
 30
0.0
 10
8924.791092744559
 20
1989.83576963023
 30
0.0
  0
SPLINE
  5
11D
330
2
100
AcDbEntity
  8
0
  6
Continuous
 62
     7
100
AcDbSpline
210
0.0
220
0.0
230
1.0
 70
     8
 71
     3
 72
    18
 73
    14
 74
     0
 42
0.0000000001
 43
0.0000000001
 40
0.0
 40
0.0
 40
0.0
 40
0.0
 40
0.0070060157
 40
0.0221993366
 40
0.046430583
 40
0.0796771039
 40
0.1216575695
 40
0.1720319866
 40
0.2959840022
 40
0.4468910009000001
 40
0.6189526632
 40
0.8057920205
 40
1.0
 40
1.0
 40
1.0
 40
1.0
 10
8924.791093183998
 20
1989.835761382845
 30
0.0
 10
8924.791220559939
 20
1989.833424460925
 30
0.0
 10
8924.799283203171
 20
1989.828976964109
 30
0.0
 10
8924.813277305217
 20
1989.825917033722
 30
0.0
 10
8924.837911071078
 20
1989.822135905906
 30
0.0
 10
8924.870765008407
 20
1989.819355045325
 30
0.0
 10
8924.912754873625
 20
1989.816933891929
 30
0.0
 10
8924.984931650801
 20
1989.814488179265
 30
0.0
 10
8925.093613132657
 20
1989.813436685308
 30
0.0
 10
8925.242895905013
 20
1989.814849235186
 30
0.0
 10
8925.413160042484
 20
1989.818909420104
 30
0.0
 10
8925.597814506819
 20
1989.825458223367
 30
0.0
 10
8925.724974488691
 20
1989.831290985388
 30
0.0
 10
8925.789765202436
 20
1989.834617135708
 30
0.0
  0
SPLINE
  5
11E
330
2
100
AcDbEntity
  8
0
  6
Continuous
 62
     7
100
AcDbSpline
210
0.0
220
0.0
230
1.0
 70
     8
 71
     3
 72
     9
 73
     5
 74
     0
 42
0.0000000001
 43
0.0000000001
 40
0.0
 40
0.0
 40
0.0
 40
0.0
 40
0.2501607808
 40
1.0
 40
1.0
 40
1.0
 40
1.0
 10
8925.789785817029
 20
1989.834543272507
 30
0.0
 10
8925.750737695981
 20
1990.59455339333
 30
0.0
 10
8925.585268489255
 20
1993.632153581766
 30
0.0
 10
8925.40022354564
 20
1996.668662200125
 30
0.0
 10
8925.280841099619
 20
1998.946617349564
 30
0.0
  0
LINE
  5
11F
330
2
100
AcDbEntity
  8
0
  6
Continuous
 62
     7
100
AcDbLine
 10
8962.723509020838
 20
1988.69739466035
 30
0.0
 11
8962.719276369895
 21
1988.727616240747
 31
0.0
  0
LINE
  5
120
330
2
100
AcDbEntity
  8
0
  6
Continuous
 62
     7
100
AcDbLine
 10
8962.719276369895
 20
1988.727616240747
 30
0.0
 11
8962.625952294443
 21
1989.6402844281
 31
0.0
  0
LINE
  5
121
330
2
100
AcDbEntity
  8
0
  6
Continuous
 62
     7
100
AcDbLine
 10
8925.975410784882
 20
1989.640284440804
 30
0.0
 11
8925.882496375848
 21
1988.731086866264
 31
0.0
  0
LINE
  5
122
330
2
100
AcDbEntity
  8
0
  6
Continuous
 62
     7
100
AcDbLine
 10
8925.882496375848
 20
1988.731086866264
 30
0.0
 11
8925.877867779545
 21
1988.697389560028
 31
0.0
  0
SPLINE
  5
123
330
2
100
AcDbEntity
  8
0
  6
Continuous
 62
     7
100
AcDbSpline
210
0.0
220
0.0
230
1.0
 70
     8
 71
     3
 72
    18
 73
    14
 74
     0
 42
0.0000000001
 43
0.0000000001
 40
0.0
 40
0.0
 40
0.0
 40
0.0
 40
0.0062106904
 40
0.0197100087
 40
0.0419709384
 40
0.0737464678
 40
0.1154795755
 40
0.1668051086
 40
0.2959239676
 40
0.4551609463000001
 40
0.6333909370000001
 40
0.8185460059999998
 40
1.0
 40
1.0
 40
1.0
 40
1.0
 10
8963.810272293073
 20
1989.83580778103
 30
0.0
 10
8963.810166522419
 20
1989.833736177348
 30
0.0
 10
8963.803347651115
 20
1989.829466721825
 30
0.0
 10
8963.790581458681
 20
1989.826474492609
 30
0.0
 10
8963.767824425213
 20
1989.822655767708
 30
0.0
 10
8963.736173817942
 20
1989.819784587267
 30
0.0
 10
8963.694468577477
 20
1989.817246454167
 30
0.0
 10
8963.620346513399
 20
1989.814587737102
 30
0.0
 10
8963.506861177764
 20
1989.813422969306
 30
0.0
 10
8963.351040102537
 20
1989.815056227406
 30
0.0
 10
8963.17653387805
 20
1989.819336876706
 30
0.0
 10
8962.99468276856
 20
1989.825989939349
 30
0.0
 10
8962.872368725625
 20
1989.831668922143
 30
0.0
 10
8962.811844409294
 20
1989.834769279168
 30
0.0
  0
SPLINE
  5
124
330
2
100
AcDbEntity
  8
0
  6
Continuous
 62
     7
100
AcDbSpline
210
0.0
220
0.0
230
1.0
 70
     8
 71
     3
 72
     9
 73
     5
 74
     0
 42
0.0000000001
 43
0.0000000001
 40
0.0
 40
0.0
 40
0.0
 40
0.0
 40
0.2498382268
 40
1.0
 40
1.0
 40
1.0
 40
1.0
 10
8963.320723734472
 20
1998.946615304867
 30
0.0
 10
8963.280849018655
 20
1998.187648852265
 30
0.0
 10
8963.112730993186
 20
1995.150272696901
 30
0.0
 10
8962.928614549161
 20
1992.113770410764
 30
0.0
 10
8962.811843517757
 20
1989.834751897946
 30
0.0
  0
SPLINE
  5
125
330
2
100
AcDbEntity
  8
0
  6
Continuous
 62
     7
100
AcDbSpline
210
0.0
220
0.0
230
1.0
 70
     8
 71
     3
 72
    11
 73
     7
 74
     0
 42
0.0000000001
 43
0.0000000001
 40
0.0
 40
0.0
 40
0.0
 40
0.0
 40
0.2498565582999999
 40
0.4997735698
 40
0.7497943477
 40
1.0
 40
1.0
 40
1.0
 40
1.0
 10
8962.811836928999
 20
1989.834752230683
 30
0.0
 10
8962.810593304366
 20
1989.810512558568
 30
0.0
 10
8962.799620539907
 20
1989.761832564483
 30
0.0
 10
8962.757423829836
 20
1989.700767174803
 30
0.0
 10
8962.698359815341
 20
1989.655673637866
 30
0.0
 10
8962.650141621208
 20
1989.642655901651
 30
0.0
 10
8962.625952121682
 20
1989.640284412871
 30
0.0
  0
LINE
  5
126
330
2
100
AcDbEntity
  8
0
  6
CENTER
 62
     1
 48
0.0388054297086546
100
AcDbLine
 10
8924.282211407904
 20
1971.087657014161
 30
0.0
 11
8964.319151739951
 21
1971.087657014161
 31
0.0
  0
LINE
  5
128
330
2
100
AcDbEntity
  8
0
  6
CENTER
 62
     1
 48
0.0388054297086546
100
AcDbLine
 10
8944.300681573928
 20
1966.23697830058
 30
0.0
 11
8944.300681573928
 21
1975.938335727743
 31
0.0
  0
DIMENSION
  5
129
102
{ACAD_XDICTIONARY
360
12A
102
}
102
{ACAD_REACTORS
330
12B
102
}
330
2
100
AcDbEntity
  8
0
 48
0.05
100
AcDbDimension
  2
*D3
 10
8974.993290084887
 20
1998.946617740726
 30
0.0
 11
8974.993290084887
 21
1993.371674131936
 31
0.0
 71
     5
 42
11.14988721758391
  3
字高-7-7
100
AcDbAlignedDimension
 13
8944.300681538411
 23
1987.796730523143
 33
0.0
 14
8959.20989404148
 24
1998.946617740726
 34
0.0
 50
90.0
100
AcDbRotatedDimension
1001
ACAD
1000
DSTYLE
1002
{
1070
    40
1040
0.5
1070
    41
1040
2.0
1070
    42
1040
0.4997500000000001
1070
    44
1040
0.4997500000000001
1070
    47
1040
0.1
1070
    48
1040
0.1
1070
    78
1070
     8
1070
    79
1070
     2
1070
    90
1070
     1
1070
   140
1040
3.5
1070
   147
1040
-0.4997500000000001
1070
   176
1070
     7
1070
   177
1070
     7
1070
   178
1070
     7
1070
   179
1070
     2
1070
   289
1070
     0
1070
   345
1005
2C
1070
   346
1005
2C
1070
   347
1005
2C
1002
}
  0
DIMENSION
  5
13E
102
{ACAD_XDICTIONARY
360
13F
102
}
102
{ACAD_REACTORS
330
140
102
}
330
2
100
AcDbEntity
  8
0
 48
0.05
100
AcDbDimension
  2
*D4
 10
8964.319151521685
 20
1978.428698015789
 30
0.0
 11
8944.300681534569
 21
1978.428698015789
 31
0.0
 71
     5
 42
40.03693997423397
  3
字高-7-7
100
AcDbAlignedDimension
 13
8924.282211547453
 23
1972.463319767097
 33
0.0
 14
8964.319151521685
 24
1973.252165167969
 34
0.0
100
AcDbRotatedDimension
1001
ACAD
1000
DSTYLE
1002
{
1070
    40
1040
0.5
1070
    41
1040
2.0
1070
    42
1040
0.4997500000000001
1070
    44
1040
0.4997500000000001
1070
    47
1040
0.1
1070
    48
1040
0.1
1070
    78
1070
     8
1070
    79
1070
     2
1070
    90
1070
     1
1070
   140
1040
3.5
1070
   147
1040
-0.4997500000000001
1070
   176
1070
     7
1070
   177
1070
     7
1070
   178
1070
     7
1070
   179
1070
     2
1070
   289
1070
     0
1070
   345
1005
2C
1070
   346
1005
2C
1070
   347
1005
2C
1002
}
  0
DIMENSION
  5
152
102
{ACAD_XDICTIONARY
360
153
102
}
102
{ACAD_REACTORS
330
154
102
}
330
2
100
AcDbEntity
  8
0
 48
0.05
100
AcDbDimension
  2
*D5
 10
8971.011809402662
 20
1975.938335506924
 30
0.0
 11
8971.011809402662
 21
1971.087656960906
 31
0.0
 71
     5
 42
9.701357092038961
  3
字高-7-7
100
AcDbAlignedDimension
 13
8961.431042812266
 23
1966.236978414885
 33
0.0
 14
8961.828036396738
 24
1975.938335506924
 34
0.0
 50
90.0
100
AcDbRotatedDimension
1001
ACAD
1000
DSTYLE
1002
{
1070
    40
1040
0.5
1070
    41
1040
2.0
1070
    42
1040
0.4997500000000001
1070
    44
1040
0.4997500000000001
1070
    47
1040
0.1
1070
    48
1040
0.1
1070
    78
1070
     8
1070
    79
1070
     2
1070
    90
1070
     1
1070
   140
1040
3.5
1070
   147
1040
-0.4997500000000001
1070
   176
1070
     7
1070
   177
1070
     7
1070
   178
1070
     7
1070
   179
1070
     2
1070
   289
1070
     0
1070
   345
1005
2C
1070
   346
1005
2C
1070
   347
1005
2C
1002
}
  0
DIMENSION
  5
166
102
{ACAD_XDICTIONARY
360
167
102
}
102
{ACAD_REACTORS
330
168
102
}
330
2
100
AcDbEntity
  8
0
 48
0.05
100
AcDbDimension
  2
*D6
 10
8966.563792887813
 20
1968.387284576538
 30
0.0
 11
8966.563792887813
 21
1964.72428457654
 31
0.0
 71
     5
 42
1.5996786040414
  3
字高-7-7
100
AcDbAlignedDimension
 13
8963.282423772932
 23
1969.98696318058
 33
0.0
 14
8963.5368674678
 24
1968.387284576538
 34
0.0
 50
90.0
100
AcDbRotatedDimension
1001
ACAD
1000
DSTYLE
1002
{
1070
    40
1040
0.5
1070
    41
1040
2.0
1070
    42
1040
0.4997500000000001
1070
    44
1040
0.4997500000000001
1070
    47
1040
0.1
1070
    48
1040
0.1
1070
    78
1070
     8
1070
    79
1070
     2
1070
    90
1070
     1
1070
   140
1040
3.5
1070
   147
1040
-0.4997500000000001
1070
   176
1070
     7
1070
   177
1070
     7
1070
   178
1070
     7
1070
   179
1070
     2
1070
   289
1070
     0
1070
   345
1005
2C
1070
   346
1005
2C
1070
   347
1005
2C
1002
}
  0
DIMENSION
  5
17A
102
{ACAD_XDICTIONARY
360
17B
102
}
102
{ACAD_REACTORS
330
17C
102
}
330
2
100
AcDbEntity
  8
0
 48
0.05
100
AcDbDimension
  2
*D7
 10
8911.387990698914
 20
1960.767339544642
 30
0.0
 11
8907.359793741369
 21
1960.767339544642
 31
0.0
 71
     5
 42
8.056393915088847
  3
字高-7-7
100
AcDbAlignedDimension
 13
8903.331596783825
 23
1966.37760329238
 33
0.0
 14
8911.387990698914
 24
1966.23697830058
 34
0.0
100
AcDbRotatedDimension
1001
ACAD
1000
DSTYLE
1002
{
1070
    40
1040
0.5
1070
    41
1040
2.0
1070
    42
1040
0.4997500000000001
1070
    44
1040
0.4997500000000001
1070
    47
1040
0.1
1070
    48
1040
0.1
1070
    78
1070
     8
1070
    79
1070
     2
1070
    90
1070
     1
1070
   140
1040
3.5
1070
   147
1040
-0.4997500000000001
1070
   176
1070
     7
1070
   177
1070
     7
1070
   178
1070
     7
1070
   179
1070
     2
1070
   289
1070
     0
1070
   345
1005
2C
1070
   346
1005
2C
1070
   347
1005
2C
1002
}
  0
LINE
  5
18E
330
2
100
AcDbEntity
  8
0
 48
0.05
100
AcDbLine
 10
8981.664355257988
 20
1926.719594163131
 30
0.0
 11
8981.664355257988
 21
1924.459603264171
 31
0.0
  0
LINE
  5
18F
330
2
100
AcDbEntity
  8
0
 48
0.05
100
AcDbLine
 10
8981.664355257988
 20
1926.719594163131
 30
0.0
 11
9019.55681946417
 21
1926.719594163131
 31
0.0
  0
LINE
  5
190
330
2
100
AcDbEntity
  8
0
 48
0.05
100
AcDbLine
 10
8982.58031513154
 20
1924.459603264171
 30
0.0
 11
9019.55681946417
 21
1924.459603264171
 31
0.0
  0
TEXT
  5
191
330
2
100
AcDbEntity
  8
hatch
100
AcDbText
 10
8987.183921043769
 20
1924.890709521606
 30
0.0
 40
1.172112222246736
  1
ASL280D40HXXLEDCAcaps
  7
cha1
100
AcDbText
1001
ACAD
1000
MTEXTBEGIN
1070
    73
1070
     1
1070
    44
1040
1.0
1070
    74
1070
     0
1000
MTEXTEND
  0
LINE
  5
196
330
2
100
AcDbEntity
  8
0
 48
0.05
100
AcDbLine
 10
9003.456280152418
 20
1926.719594163131
 30
0.0
 11
9003.456280152418
 21
1924.459603264171
 31
0.0
  0
TEXT
  5
197
330
2
100
AcDbEntity
  8
hatch
100
AcDbText
 10
8982.01631360531
 20
1924.948539051637
 30
0.0
 40
1.172112222246736
  1
TYPE:
  7
cha1
100
AcDbText
1001
ACAD
1000
MTEXTBEGIN
1070
    73
1070
     1
1070
    44
1040
1.0
1070
    74
1070
     0
1000
MTEXTEND
  0
LINE
  5
198
330
2
100
AcDbEntity
  8
0
100
AcDbLine
 10
8895.61678427432
 20
2016.541250718312
 30
0.0
 11
8899.242714593221
 21
2016.541250718312
 31
0.0
1001
AcDbBlockRepETag
1070
     1
1071
        0
1005
0
  0
LINE
  5
199
330
2
100
AcDbEntity
  8
0
100
AcDbLine
 10
9023.545342815072
 20
2015.752771811598
 30
0.0
 11
9019.919412496172
 21
2015.752771811598
 31
0.0
1001
AcDbBlockRepETag
1070
     1
1071
        1
1005
0
  0
LINE
  5
19A
330
2
100
AcDbEntity
  8
0
100
AcDbLine
 10
9023.545342815072
 20
2012.126841492696
 30
0.0
 11
9023.545342815072
 21
2015.752771811598
 31
0.0
1001
AcDbBlockRepETag
1070
     1
1071
        2
1005
0
  0
LINE
  5
19B
330
2
100
AcDbEntity
  8
0
100
AcDbLine
 10
9021.732377655618
 20
1995.266265509803
 30
0.0
 11
9019.919412496172
 21
1995.266265509803
 31
0.0
1001
AcDbBlockRepETag
1070
     1
1071
        3
1005
0
  0
TEXT
  5
19C
330
2
100
AcDbEntity
  8
0
100
AcDbText
 10
9020.245746224871
 20
1986.20143971255
 30
0.0
 40
1.450372127560623
  1
B
  7
ISO Proportional
 72
     4
 11
9020.825895075892
 21
1986.92662577633
 31
0.0
100
AcDbText
1001
AcDbBlockRepETag
1070
     1
1071
        4
1005
0
  0
LINE
  5
19E
330
2
100
AcDbEntity
  8
0
100
AcDbLine
 10
9021.732377655618
 20
1978.586986042855
 30
0.0
 11
9019.919412496172
 21
1978.586986042855
 31
0.0
1001
AcDbBlockRepETag
1070
     1
1071
        5
1005
0
  0
TEXT
  5
19F
330
2
100
AcDbEntity
  8
0
100
AcDbText
 10
9020.352057795319
 20
1969.522160245603
 30
0.0
 40
1.450372127560623
  1
C
  7
ISO Proportional
 72
     4
 11
9020.825895075892
 21
1970.247346309383
 31
0.0
100
AcDbText
1001
AcDbBlockRepETag
1070
     1
1071
        6
1005
0
  0
LINE
  5
1A0
330
2
100
AcDbEntity
  8
0
100
AcDbLine
 10
9018.106447336718
 20
1961.907706575909
 30
0.0
 11
9021.732377655618
 21
1961.907706575909
 31
0.0
1001
AcDbBlockRepETag
1070
     1
1071
        7
1005
0
  0
TEXT
  5
1A1
330
2
100
AcDbEntity
  8
0
100
AcDbText
 10
9010.346956454272
 20
2012.30813800864
 30
0.0
 40
1.450372127560623
  1
8
  7
ISO Proportional
 72
     4
 11
9010.854586698918
 21
2013.033324072421
 31
0.0
100
AcDbText
1001
AcDbBlockRepETag
1070
     1
1071
        8
1005
0
  0
LINE
  5
1A2
330
2
100
AcDbEntity
  8
0
100
AcDbLine
 10
9001.789760901658
 20
2012.126841492696
 30
0.0
 11
9001.789760901658
 21
2013.939806652148
 31
0.0
1001
AcDbBlockRepETag
1070
     1
1071
        9
1005
0
  0
TEXT
  5
1A3
330
2
100
AcDbEntity
  8
0
100
AcDbText
 10
8992.217304859766
 20
2012.30813800864
 30
0.0
 40
1.450372127560623
  1
7
  7
ISO Proportional
 72
     4
 11
8992.724935104412
 21
2013.033324072421
 31
0.0
100
AcDbText
1001
AcDbBlockRepETag
1070
     1
1071
       10
1005
0
  0
LINE
  5
1A4
330
2
100
AcDbEntity
  8
0
100
AcDbLine
 10
8983.660109307159
 20
2012.126841492696
 30
0.0
 11
8983.660109307159
 21
2013.939806652148
 31
0.0
1001
AcDbBlockRepETag
1070
     1
1071
       11
1005
0
  0
TEXT
  5
1A5
330
2
100
AcDbEntity
  8
0
100
AcDbText
 10
8974.095076429689
 20
2012.275590287668
 30
0.0
 40
1.450372127560623
  1
6
  7
ISO Proportional
 72
     4
 11
8974.595283509902
 21
2013.033324072421
 31
0.0
100
AcDbText
1001
AcDbBlockRepETag
1070
     1
1071
       12
1005
0
  0
LINE
  5
1A6
330
2
100
AcDbEntity
  8
0
100
AcDbLine
 10
8965.530457712651
 20
2012.126841492696
 30
0.0
 11
8965.530457712651
 21
2013.939806652148
 31
0.0
1001
AcDbBlockRepETag
1070
     1
1071
       13
1005
0
  0
TEXT
  5
1A7
330
2
100
AcDbEntity
  8
0
100
AcDbText
 10
8955.927963480464
 20
2012.338176198927
 30
0.0
 40
1.450372127560623
  1
5
  7
ISO Proportional
 72
     4
 11
8956.465631915397
 21
2013.033324072421
 31
0.0
100
AcDbText
1001
AcDbBlockRepETag
1070
     1
1071
       14
1005
0
  0
LINE
  5
1A8
330
2
100
AcDbEntity
  8
0
100
AcDbLine
 10
9021.732377655618
 20
1945.228427108962
 30
0.0
 11
9019.919412496172
 21
1945.228427108962
 31
0.0
1001
AcDbBlockRepETag
1070
     1
1071
       15
1005
0
  0
LINE
  5
1A9
330
2
100
AcDbEntity
  8
0
100
AcDbLine
 10
9019.556819464284
 20
1911.68857165912
 30
0.0
 11
9019.556819464284
 21
2012.126841492696
 31
0.0
1001
AcDbBlockRepETag
1070
     1
1071
       16
1005
0
  0
LINE
  5
1AA
330
2
100
AcDbEntity
  8
0
100
AcDbLine
 10
9019.919412496172
 20
1911.68857165912
 30
0.0
 11
9019.919412496172
 21
2012.126841492696
 31
0.0
1001
AcDbBlockRepETag
1070
     1
1071
       17
1005
0
  0
TEXT
  5
1AB
330
2
100
AcDbEntity
  8
0
100
AcDbText
 10
9020.204443713225
 20
1952.842880778654
 30
0.0
 40
1.450372127560623
  1
D
  7
ISO Proportional
 72
     4
 11
9020.825895075892
 21
1953.568066842434
 31
0.0
100
AcDbText
1001
AcDbBlockRepETag
1070
     1
1071
       18
1005
0
  0
TEXT
  5
1AC
330
2
100
AcDbEntity
  8
0
100
AcDbText
 10
8937.755831469868
 20
2012.30813800864
 30
0.0
 40
1.450372127560623
  1
4
  7
ISO Proportional
 72
     4
 11
8938.335980320891
 21
2013.033324072421
 31
0.0
100
AcDbText
1001
AcDbBlockRepETag
1070
     1
1071
       19
1005
0
  0
LINE
  5
1AD
330
2
100
AcDbEntity
  8
0
100
AcDbLine
 10
8929.271154523636
 20
2012.126841492696
 30
0.0
 11
8929.271154523636
 21
2013.939806652148
 31
0.0
1001
AcDbBlockRepETag
1070
     1
1071
       20
1005
0
  0
LINE
  5
1AE
330
2
100
AcDbEntity
  8
0
100
AcDbLine
 10
8911.141502929124
 20
2012.126841492696
 30
0.0
 11
8911.141502929124
 21
2013.939806652148
 31
0.0
1001
AcDbBlockRepETag
1070
     1
1071
       21
1005
0
  0
TEXT
  5
1AF
330
2
100
AcDbEntity
  8
0
100
AcDbText
 10
8901.543908055366
 20
2012.271735952289
 30
0.0
 40
1.450372127560623
  1
2
  7
ISO Proportional
 72
     4
 11
8902.076677131869
 21
2013.033324072421
 31
0.0
100
AcDbText
1001
AcDbBlockRepETag
1070
     1
1071
       22
1005
0
  0
LINE
  5
1B0
330
2
100
AcDbEntity
  8
0
100
AcDbLine
 10
8893.011851334618
 20
2012.126841492696
 30
0.0
 11
8893.011851334618
 21
2013.939806652148
 31
0.0
1001
AcDbBlockRepETag
1070
     1
1071
       23
1005
0
  0
TEXT
  5
1B1
330
2
100
AcDbEntity
  8
0
100
AcDbText
 10
8919.668660291447
 20
2012.338176198927
 30
0.0
 40
1.450372127560623
  1
3
  7
ISO Proportional
 72
     4
 11
8920.206328726381
 21
2013.033324072421
 31
0.0
100
AcDbText
1001
AcDbBlockRepETag
1070
     1
1071
       24
1005
0
  0
TEXT
  5
1B2
330
2
100
AcDbEntity
  8
0
100
AcDbText
 10
8883.584432505474
 20
2012.30813800864
 30
0.0
 40
1.450372127560623
  1
1
  7
ISO Proportional
 72
     4
 11
8883.947025537365
 21
2013.033324072421
 31
0.0
100
AcDbText
1001
AcDbBlockRepETag
1070
     1
1071
       25
1005
0
  0
LINE
  5
1B3
330
2
100
AcDbEntity
  8
0
100
AcDbLine
 10
8874.882199740111
 20
2015.752771811598
 30
0.0
 11
8871.256269421207
 21
2015.752771811598
 31
0.0
1001
AcDbBlockRepETag
1070
     1
1071
       26
1005
0
  0
LINE
  5
1B4
330
2
100
AcDbEntity
  8
0
100
AcDbLine
 10
8871.256269421207
 20
2015.752771811598
 30
0.0
 11
8871.256269421207
 21
2012.126841492696
 31
0.0
1001
AcDbBlockRepETag
1070
     1
1071
       27
1005
0
  0
TEXT
  5
1B5
330
2
100
AcDbEntity
  8
0
100
AcDbText
 10
8873.323049702987
 20
2002.880719179497
 30
0.0
 40
1.450372127560623
  1
A
  7
ISO Proportional
 72
     4
 11
8873.975717160389
 21
2003.605905243277
 31
0.0
100
AcDbText
1001
AcDbBlockRepETag
1070
     1
1071
       28
1005
0
  0
LINE
  5
1B6
330
2
100
AcDbEntity
  8
0
100
AcDbLine
 10
8874.882199740111
 20
1995.266265509803
 30
0.0
 11
8873.069234580659
 21
1995.266265509803
 31
0.0
1001
AcDbBlockRepETag
1070
     1
1071
       29
1005
0
  0
TEXT
  5
1B7
330
2
100
AcDbEntity
  8
0
100
AcDbText
 10
8873.395568309364
 20
1986.20143971255
 30
0.0
 40
1.450372127560623
  1
B
  7
ISO Proportional
 72
     4
 11
8873.975717160389
 21
1986.92662577633
 31
0.0
100
AcDbText
1001
AcDbBlockRepETag
1070
     1
1071
       30
1005
0
  0
LINE
  5
1B8
330
2
100
AcDbEntity
  8
0
100
AcDbLine
 10
8874.882199740111
 20
1978.586986042855
 30
0.0
 11
8873.069234580659
 21
1978.586986042855
 31
0.0
1001
AcDbBlockRepETag
1070
     1
1071
       31
1005
0
  0
TEXT
  5
1B9
330
2
100
AcDbEntity
  8
0
100
AcDbText
 10
8873.501879879814
 20
1969.522160245603
 30
0.0
 40
1.450372127560623
  1
C
  7
ISO Proportional
 72
     4
 11
8873.975717160389
 21
1970.247346309383
 31
0.0
100
AcDbText
1001
AcDbBlockRepETag
1070
     1
1071
       32
1005
0
  0
LINE
  5
1BA
330
2
100
AcDbEntity
  8
0
100
AcDbLine
 10
8874.882199740111
 20
1945.228427108962
 30
0.0
 11
8873.069234580659
 21
1945.228427108962
 31
0.0
1001
AcDbBlockRepETag
1070
     1
1071
       33
1005
0
  0
TEXT
  5
1BB
330
2
100
AcDbEntity
  8
0
100
AcDbText
 10
8873.468086915741
 20
1936.163601311706
 30
0.0
 40
1.450372127560623
  1
E
  7
ISO Proportional
 72
     4
 11
8873.975717160389
 21
1936.888787375486
 31
0.0
100
AcDbText
1001
AcDbBlockRepETag
1070
     1
1071
       34
1005
0
  0
LINE
  5
1BC
330
2
100
AcDbEntity
  8
0
100
AcDbLine
 10
8874.882199740111
 20
1928.549147642015
 30
0.0
 11
8873.069234580659
 21
1928.549147642015
 31
0.0
1001
AcDbBlockRepETag
1070
     1
1071
       35
1005
0
  0
TEXT
  5
1BD
330
2
100
AcDbEntity
  8
0
100
AcDbText
 10
8873.468086915741
 20
1919.48432184476
 30
0.0
 40
1.450372127560623
  1
F
  7
ISO Proportional
 72
     4
 11
8873.975717160389
 21
1920.20950790854
 31
0.0
100
AcDbText
1001
AcDbBlockRepETag
1070
     1
1071
       36
1005
0
  0
LINE
  5
1BE
330
2
100
AcDbEntity
  8
0
100
AcDbLine
 10
8871.256269421207
 20
1908.062641340221
 30
0.0
 11
8874.882199740111
 21
1908.062641340221
 31
0.0
1001
AcDbBlockRepETag
1070
     1
1071
       37
1005
0
  0
LINE
  5
1BF
330
2
100
AcDbEntity
  8
0
100
AcDbLine
 10
8871.256269421207
 20
1908.062641340221
 30
0.0
 11
8871.256269421207
 21
1911.68857165912
 31
0.0
1001
AcDbBlockRepETag
1070
     1
1071
       38
1005
0
  0
LINE
  5
1C0
330
2
100
AcDbEntity
  8
0
100
AcDbLine
 10
8875.244792771999
 20
2012.126841492696
 30
0.0
 11
8875.244792771999
 21
1911.68857165912
 31
0.0
1001
AcDbBlockRepETag
1070
     1
1071
       39
1005
0
  0
LINE
  5
1C1
330
2
100
AcDbEntity
  8
0
100
AcDbLine
 10
8874.882199740111
 20
2012.126841492696
 30
0.0
 11
8874.882199740111
 21
1911.68857165912
 31
0.0
1001
AcDbBlockRepETag
1070
     1
1071
       40
1005
0
  0
TEXT
  5
1C2
330
2
100
AcDbEntity
  8
0
100
AcDbText
 10
8873.35426579772
 20
1952.842880778654
 30
0.0
 40
1.450372127560623
  1
D
  7
ISO Proportional
 72
     4
 11
8873.975717160389
 21
1953.568066842434
 31
0.0
100
AcDbText
1001
AcDbBlockRepETag
1070
     1
1071
       41
1005
0
  0
LINE
  5
1C3
330
2
100
AcDbEntity
  8
0
100
AcDbLine
 10
8874.882199740111
 20
1912.051164691013
 30
0.0
 11
9019.919412496172
 21
1912.051164691013
 31
0.0
1001
AcDbBlockRepETag
1070
     1
1071
       42
1005
0
  0
LINE
  5
1C4
330
2
100
AcDbEntity
  8
0
100
AcDbLine
 10
8874.882199740111
 20
1911.68857165912
 30
0.0
 11
9019.919412496172
 21
1911.68857165912
 31
0.0
1001
AcDbBlockRepETag
1070
     1
1071
       43
1005
0
  0
LINE
  5
1C5
330
2
100
AcDbEntity
  8
0
100
AcDbLine
 10
8929.271154523636
 20
1909.875606499671
 30
0.0
 11
8965.530457712651
 21
1909.875606499671
 31
0.0
1001
AcDbBlockRepETag
1070
     1
1071
       44
1005
0
  0
LINE
  5
1C6
330
2
100
AcDbEntity
  8
0
100
AcDbLine
 10
9019.919412496172
 20
2011.764248460805
 30
0.0
 11
8874.882199740111
 21
2011.764248460805
 31
0.0
1001
AcDbBlockRepETag
1070
     1
1071
       45
1005
0
  0
LINE
  5
1C7
330
2
100
AcDbEntity
  8
0
100
AcDbLine
 10
9019.919412496172
 20
2012.126841492696
 30
0.0
 11
8874.882199740111
 21
2012.126841492696
 31
0.0
1001
AcDbBlockRepETag
1070
     1
1071
       46
1005
0
  0
LWPOLYLINE
  5
1C8
330
2
100
AcDbEntity
  8
0
100
AcDbPolyline
 90
        4
 70
     1
 43
0.0
 10
8873.069234580624
 20
1909.875606499671
 10
9021.732377655583
 20
1909.875606499671
 10
9021.732377655583
 20
2013.939806652148
 10
8873.069234580624
 20
2013.939806652148
1001
AcDbBlockRepETag
1070
     1
1071
       47
1005
0
  0
TEXT
  5
1C9
330
2
100
AcDbEntity
  8
0
100
AcDbText
 10
9010.346956454272
 20
1910.056903015613
 30
0.0
 40
1.450372127560623
  1
8
  7
ISO Proportional
 72
     4
 11
9010.854586698918
 21
1910.782089079394
 31
0.0
100
AcDbText
1001
AcDbBlockRepETag
1070
     1
1071
       48
1005
0
  0
LINE
  5
1CA
330
2
100
AcDbEntity
  8
0
100
AcDbLine
 10
9001.789760901658
 20
1909.875606499669
 30
0.0
 11
9001.789760901658
 21
1911.68857165912
 31
0.0
1001
AcDbBlockRepETag
1070
     1
1071
       49
1005
0
  0
TEXT
  5
1CB
330
2
100
AcDbEntity
  8
0
100
AcDbText
 10
8992.217304859766
 20
1910.056903015613
 30
0.0
 40
1.450372127560623
  1
7
  7
ISO Proportional
 72
     4
 11
8992.724935104412
 21
1910.782089079394
 31
0.0
100
AcDbText
1001
AcDbBlockRepETag
1070
     1
1071
       50
1005
0
  0
LINE
  5
1CC
330
2
100
AcDbEntity
  8
0
100
AcDbLine
 10
8983.660109307159
 20
1909.875606499669
 30
0.0
 11
8983.660109307159
 21
1911.68857165912
 31
0.0
1001
AcDbBlockRepETag
1070
     1
1071
       51
1005
0
  0
TEXT
  5
1CD
330
2
100
AcDbEntity
  8
0
100
AcDbText
 10
8974.095076429689
 20
1910.02435529464
 30
0.0
 40
1.450372127560623
  1
6
  7
ISO Proportional
 72
     4
 11
8974.595283509902
 21
1910.782089079394
 31
0.0
100
AcDbText
1001
AcDbBlockRepETag
1070
     1
1071
       52
1005
0
  0
LINE
  5
1CE
330
2
100
AcDbEntity
  8
0
100
AcDbLine
 10
8965.530457712651
 20
1909.875606499669
 30
0.0
 11
8965.530457712651
 21
1911.68857165912
 31
0.0
1001
AcDbBlockRepETag
1070
     1
1071
       53
1005
0
  0
TEXT
  5
1CF
330
2
100
AcDbEntity
  8
0
100
AcDbText
 10
8955.927963480464
 20
1910.0869412059
 30
0.0
 40
1.450372127560623
  1
5
  7
ISO Proportional
 72
     4
 11
8956.465631915397
 21
1910.782089079394
 31
0.0
100
AcDbText
1001
AcDbBlockRepETag
1070
     1
1071
       54
1005
0
  0
TEXT
  5
1D0
330
2
100
AcDbEntity
  8
0
100
AcDbText
 10
8937.755831469868
 20
1910.056903015613
 30
0.0
 40
1.450372127560623
  1
4
  7
ISO Proportional
 72
     4
 11
8938.335980320891
 21
1910.782089079394
 31
0.0
100
AcDbText
1001
AcDbBlockRepETag
1070
     1
1071
       55
1005
0
  0
LINE
  5
1D1
330
2
100
AcDbEntity
  8
0
100
AcDbLine
 10
8929.271154523636
 20
1909.875606499669
 30
0.0
 11
8929.271154523636
 21
1911.68857165912
 31
0.0
1001
AcDbBlockRepETag
1070
     1
1071
       56
1005
0
  0
LINE
  5
1D2
330
2
100
AcDbEntity
  8
0
100
AcDbLine
 10
8911.141502929124
 20
1909.875606499669
 30
0.0
 11
8911.141502929124
 21
1911.68857165912
 31
0.0
1001
AcDbBlockRepETag
1070
     1
1071
       57
1005
0
  0
TEXT
  5
1D3
330
2
100
AcDbEntity
  8
0
100
AcDbText
 10
8901.543908055366
 20
1910.020500959262
 30
0.0
 40
1.450372127560623
  1
2
  7
ISO Proportional
 72
     4
 11
8902.076677131869
 21
1910.782089079394
 31
0.0
100
AcDbText
1001
AcDbBlockRepETag
1070
     1
1071
       58
1005
0
  0
LINE
  5
1D4
330
2
100
AcDbEntity
  8
0
100
AcDbLine
 10
8893.011851334618
 20
1909.875606499669
 30
0.0
 11
8893.011851334618
 21
1911.68857165912
 31
0.0
1001
AcDbBlockRepETag
1070
     1
1071
       59
1005
0
  0
TEXT
  5
1D5
330
2
100
AcDbEntity
  8
0
100
AcDbText
 10
8919.668660291447
 20
1910.0869412059
 30
0.0
 40
1.450372127560623
  1
3
  7
ISO Proportional
 72
     4
 11
8920.206328726381
 21
1910.782089079394
 31
0.0
100
AcDbText
1001
AcDbBlockRepETag
1070
     1
1071
       60
1005
0
  0
TEXT
  5
1D6
330
2
100
AcDbEntity
  8
0
100
AcDbText
 10
8883.584432505474
 20
1910.056903015613
 30
0.0
 40
1.450372127560623
  1
1
  7
ISO Proportional
 72
     4
 11
8883.947025537365
 21
1910.782089079394
 31
0.0
100
AcDbText
1001
AcDbBlockRepETag
1070
     1
1071
       61
1005
0
  0
LINE
  5
1D7
330
2
100
AcDbEntity
  8
0
100
AcDbLine
 10
9023.545342815079
 20
1908.062641340221
 30
0.0
 11
9019.919412496177
 21
1908.062641340221
 31
0.0
1001
AcDbBlockRepETag
1070
     1
1071
       62
1005
0
  0
LINE
  5
1D8
330
2
100
AcDbEntity
  8
0
100
AcDbLine
 10
9023.545342815079
 20
1908.062641340221
 30
0.0
 11
9023.545342815079
 21
1911.68857165912
 31
0.0
1001
AcDbBlockRepETag
1070
     1
1071
       63
1005
0
  0
MTEXT
  5
1D9
330
2
100
AcDbEntity
  8
图层1
100
AcDbMText
 10
8956.142449255493
 20
1920.272532180023
 30
0.0
 40
1.541186611830303
 41
7.532598155977771
 71
     1
 72
     5
  1
PC-1250Z100
 73
     1
 44
1.0
1001
AcDbBlockRepETag
1070
     1
1071
        0
1005
0
  0
MTEXT
  5
1DB
330
2
100
AcDbEntity
  8
图层1
100
AcDbMText
 10
8962.795172874061
 20
1917.128635696902
 30
0.0
 40
1.139730582960261
 41
7.532598155977771
 71
     1
 72
     5
  1
2020-3-21
 73
     1
 44
1.0
1001
AcDbBlockRepETag
1070
     1
1071
        2
1005
0
  0
MTEXT
  5
1DC
330
2
100
AcDbEntity
  8
图层1
100
AcDbMText
 10
8954.864951346339
 20
1917.194398322822
 30
0.0
 40
1.04411014232887
 41
18.65536379206598
 71
     1
 72
     5
  1
{\H1.333x;C.Y.CAI}
 73
     1
 44
1.0
1001
AcDbBlockRepETag
1070
     1
1071
        3
1005
0
  0
LINE
  5
1DD
330
2
100
AcDbEntity
  8
图层1
 48
0.05
100
AcDbLine
 10
8932.314400026571
 20
1916.352361731398
 30
0.0
 11
8936.246926234643
 21
1916.352361731398
 31
0.0
1001
AcDbBlockRepETag
1070
     1
1071
        4
1005
0
  0
LINE
  5
1DE
330
2
100
AcDbEntity
  8
图层1
 48
0.05
100
AcDbLine
 10
8924.877552730078
 20
1916.352361731398
 30
0.0
 11
8928.810078938154
 21
1916.352361731398
 31
0.0
1001
AcDbBlockRepETag
1070
     1
1071
        5
1005
0
  0
MTEXT
  5
1DF
330
2
100
AcDbEntity
  8
图层1
100
AcDbMText
 10
8906.478805997773
 20
1917.079885678169
 30
0.0
 40
1.139730582960261
 41
5.023932409688836
 71
     1
 72
     5
  1
NEW
 73
     1
 44
1.0
1001
AcDbBlockRepETag
1070
     1
1071
        6
1005
0
  0
MTEXT
  5
1E0
330
2
100
AcDbEntity
  8
图层1
100
AcDbMText
 10
8882.818649092737
 20
1917.098886035782
 30
0.0
 40
1.025757524664236
 41
8.01610510015384
 71
     1
 72
     5
  1
2020-3-21
 73
     1
 44
1.0
1001
AcDbBlockRepETag
1070
     1
1071
        7
1005
0
  0
MTEXT
  5
1E1
330
2
100
AcDbEntity
  8
图层1
100
AcDbMText
 10
8879.186355897033
 20
1917.052856794165
 30
0.0
 40
1.139730582960261
 41
0.4667097271887684
 71
     1
 72
     5
  1
{\fArial|b0|i0|c0|p32;A/0}
 73
     1
 44
1.0
1001
AcDbBlockRepETag
1070
     1
1071
        8
1005
0
  0
LINE
  5
1E2
330
2
100
AcDbEntity
  8
图层1
100
AcDbLine
 10
9019.556819464298
 20
1924.459603264158
 30
0.0
 11
8947.471356887602
 21
1924.459603264158
 31
0.0
1001
AcDbBlockRepETag
1070
     1
1071
        9
1005
0
  0
LINE
  5
1E3
330
2
100
AcDbEntity
  8
图层1
 48
0.1
100
AcDbLine
 10
8971.167229591776
 20
1915.086986719053
 30
0.0
 11
8979.502802457082
 21
1915.086986719053
 31
0.0
1001
AcDbBlockRepETag
1070
     1
1071
       10
1005
0
  0
LINE
  5
1E4
330
2
100
AcDbEntity
  8
图层1
100
AcDbLine
 10
8979.502802457082
 20
1920.622415249814
 30
0.0
 11
8947.471356887602
 21
1920.622415249814
 31
0.0
1001
AcDbBlockRepETag
1070
     1
1071
       11
1005
0
  0
LINE
  5
1E5
330
2
100
AcDbEntity
  8
图层1
100
AcDbLine
 10
8979.502802457082
 20
1917.863023132318
 30
0.0
 11
8947.471356887602
 21
1917.863023132318
 31
0.0
1001
AcDbBlockRepETag
1070
     1
1071
       12
1005
0
  0
LINE
  5
1E6
330
2
100
AcDbEntity
  8
图层1
 48
0.1
100
AcDbLine
 10
8979.502802457082
 20
1924.459603264158
 30
0.0
 11
8979.502802457082
 21
1912.051164691007
 31
0.0
1001
AcDbBlockRepETag
1070
     1
1071
       13
1005
0
  0
LINE
  5
1E7
330
2
100
AcDbEntity
  8
图层1
  6
CENTER2
 62
     1
 48
0.2
100
AcDbLine
 10
8977.338276455247
 20
1913.810764662885
 30
0.0
 11
8979.174634295091
 21
1913.810764662885
 31
0.0
1001
AcDbBlockRepETag
1070
     1
1071
       14
1005
0
  0
MTEXT
  5
1E9
330
2
100
AcDbEntity
  8
图层1
 62
     4
100
AcDbMText
 10
8976.08614436165
 20
1919.765318118119
 30
0.0
 40
1.018077673039516
 41
8.136472806840668
 71
     1
 72
     5
  1
mm
  7
ROMANS
 73
     1
 44
1.0
1001
AcDbBlockRepETag
1070
     1
1071
       15
1005
0
  0
LINE
  5
1EB
330
2
100
AcDbEntity
  8
图层1
100
AcDbLine
 10
8978.849771678325
 20
1914.219941036312
 30
0.0
 11
8978.849771678325
 21
1913.401588289456
 31
0.0
1001
AcDbBlockRepETag
1070
     1
1071
       16
1005
0
  0
LINE
  5
1EC
330
2
100
AcDbEntity
  8
图层1
100
AcDbLine
 10
8977.575803589138
 20
1913.606176476169
 30
0.0
 11
8978.849771678325
 21
1913.401588289456
 31
0.0
1001
AcDbBlockRepETag
1070
     1
1071
       17
1005
0
  0
LINE
  5
1ED
330
2
100
AcDbEntity
  8
图层1
100
AcDbLine
 10
8977.575803589138
 20
1914.015352849597
 30
0.0
 11
8978.849771678325
 21
1914.219941036312
 31
0.0
1001
AcDbBlockRepETag
1070
     1
1071
       18
1005
0
  0
MTEXT
  5
1EE
330
2
100
AcDbEntity
  8
图层1
100
AcDbMText
 10
8984.045961059338
 20
1914.071894631383
 30
0.0
 40
0.9162699057355656
 41
7.322820663306114
 71
     1
 72
     5
  1
{\C2;Product:}
  7
ROMANS
 73
     1
 44
1.0
1001
AcDbBlockRepETag
1070
     1
1071
       19
1005
0
  0
MTEXT
  5
1EF
330
2
100
AcDbEntity
  8
图层1
100
AcDbMText
 10
8984.155463992321
 20
1916.936701196428
 30
0.0
 40
0.9162699057355656
 41
7.322820663306114
 71
     1
 72
     5
  1
{\C2;PART NO.}
  7
ROMANS
 73
     1
 44
1.0
1001
AcDbBlockRepETag
1070
     1
1071
       20
1005
0
  0
LINE
  5
1F0
330
2
100
AcDbEntity
  8
图层1
 48
0.1
100
AcDbLine
 10
8992.365379700615
 20
1917.846378836549
 30
0.0
 11
8992.365379700615
 21
1912.29430601002
 31
0.0
1001
AcDbBlockRepETag
1070
     1
1071
       22
1005
0
  0
MTEXT
  5
1F1
102
{ACAD_XDICTIONARY
360
1F2
102
}
330
2
100
AcDbEntity
  8
图层1
100
AcDbMText
 10
8980.001614866873
 20
1917.21866503666
 30
0.0
 40
1.036930963280989
 41
4.735930089578663
 71
     1
 72
     5
  1
{\fPMingLiU|b0|i0|c136|p54;\C2;\U+6599 \U+865F}
 73
     1
 44
1.0
1001
AcDbBlockRepETag
1070
     1
1071
       23
1005
0
  0
MTEXT
  5
1F4
102
{ACAD_XDICTIONARY
360
1F5
102
}
330
2
100
AcDbEntity
  8
图层1
100
AcDbMText
 10
8979.992642820006
 20
1914.295848564862
 30
0.0
 40
1.036930963280989
 41
4.735930089578663
 71
     1
 72
     5
  1
{\fPMingLiU|b0|i0|c136|p54;\C2;\U+54C1 \U+540D}
 73
     1
 44
1.0
1001
AcDbBlockRepETag
1070
     1
1071
       24
1005
0
  0
LINE
  5
1F7
330
2
100
AcDbEntity
  8
图层1
 48
0.1
100
AcDbLine
 10
8981.934227700735
 20
1915.070342423284
 30
0.0
 11
8985.152284364612
 21
1915.070342423284
 31
0.0
1001
AcDbBlockRepETag
1070
     1
1071
       27
1005
0
  0
LINE
  5
1F8
330
2
100
AcDbEntity
  8
图层1
 62
     0
100
AcDbLine
 10
9019.556819464298
 20
1921.533723141238
 30
0.0
 11
9019.556819464298
 21
1912.051164691007
 31
0.0
1001
AcDbBlockRepETag
1070
     1
1071
       28
1005
0
  0
LINE
  5
1F9
330
2
100
AcDbEntity
  8
图层1
 62
     0
100
AcDbLine
 10
9019.556819464298
 20
1912.051164691007
 30
0.0
 11
9019.556819464298
 21
1921.533723141238
 31
0.0
1001
AcDbBlockRepETag
1070
     1
1071
       29
1005
0
  0
LINE
  5
1FA
330
2
100
AcDbEntity
  8
图层1
100
AcDbLine
 10
9019.556819464298
 20
1924.459603264158
 30
0.0
 11
9019.556819464298
 21
1912.051164691007
 31
0.0
1001
AcDbBlockRepETag
1070
     1
1071
       30
1005
0
  0
LINE
  5
1FB
330
2
100
AcDbEntity
  8
图层1
 48
0.1
100
AcDbLine
 10
8979.502802457082
 20
1917.846378836549
 30
0.0
 11
9019.556819464298
 21
1917.846378836549
 31
0.0
1001
AcDbBlockRepETag
1070
     1
1071
       31
1005
0
  0
LINE
  5
1FC
330
2
100
AcDbEntity
  8
图层1
 48
0.1
100
AcDbLine
 10
8979.502802457082
 20
1915.086986719053
 30
0.0
 11
9019.556819464298
 21
1915.086986719053
 31
0.0
1001
AcDbBlockRepETag
1070
     1
1071
       32
1005
0
  0
LINE
  5
1FD
330
2
100
AcDbEntity
  8
图层1
100
AcDbLine
 10
9019.556819464298
 20
1912.051164691007
 30
0.0
 11
8875.24479277201
 21
1912.051164691007
 31
0.0
1001
AcDbBlockRepETag
1070
     1
1071
       35
1005
0
  0
LINE
  5
1FE
330
2
100
AcDbEntity
  8
图层1
100
AcDbLine
 10
9019.556819464298
 20
1912.051164691007
 30
0.0
 11
8875.24479277201
 21
1912.051164691007
 31
0.0
1001
AcDbBlockRepETag
1070
     1
1071
       36
1005
0
  0
MTEXT
  5
1FF
330
2
100
AcDbEntity
  8
图层1
100
AcDbMText
 10
8971.678764531896
 20
1916.912222182485
 30
0.0
 40
0.7069983840552205
 41
5.650340495210017
 71
     1
 72
     5
  1
{\C2;SIZE}
  7
ROMANS
 73
     1
 44
1.0
1001
AcDbBlockRepETag
1070
     1
1071
       38
1005
0
  0
MTEXT
  5
200
330
2
100
AcDbEntity
  8
图层1
100
AcDbMText
 10
8971.712188546385
 20
1919.625294556086
 30
0.0
 40
0.7069983840552205
 41
5.650340495210017
 71
     1
 72
     5
  1
{\C2;UNIT}
  7
ROMANS
 73
     1
 44
1.0
1001
AcDbBlockRepETag
1070
     1
1071
       39
1005
0
  0
MTEXT
  5
201
330
2
100
AcDbEntity
  8
图层1
100
AcDbMText
 10
8971.71052097555
 20
1913.880039296312
 30
0.0
 40
0.7069983840552205
 41
5.650340495210017
 71
     1
 72
     5
  1
{\C2;SHEET}
  7
ROMANS
 73
     1
 44
1.0
1001
AcDbBlockRepETag
1070
     1
1071
       40
1005
0
  0
LINE
  5
202
330
2
100
AcDbEntity
  8
图层1
100
AcDbLine
 10
8971.167229591776
 20
1924.459603264158
 30
0.0
 11
8971.167229591776
 21
1912.310950305792
 31
0.0
1001
AcDbBlockRepETag
1070
     1
1071
       42
1005
0
  0
LINE
  5
203
330
2
100
AcDbEntity
  8
图层1
100
AcDbLine
 10
8971.167229591776
 20
1924.459603264158
 30
0.0
 11
8971.167229591776
 21
1912.051164691007
 31
0.0
1001
AcDbBlockRepETag
1070
     1
1071
       43
1005
0
  0
LINE
  5
204
330
2
100
AcDbEntity
  8
图层1
100
AcDbLine
 10
8971.167229591776
 20
1912.051164691007
 30
0.0
 11
8947.471356887602
 21
1912.051164691007
 31
0.0
1001
AcDbBlockRepETag
1070
     1
1071
       44
1005
0
  0
LINE
  5
205
330
2
100
AcDbEntity
  8
图层1
100
AcDbLine
 10
8971.167229591776
 20
1915.086986719053
 30
0.0
 11
8947.471356887602
 21
1915.086986719053
 31
0.0
1001
AcDbBlockRepETag
1070
     1
1071
       45
1005
0
  0
MTEXT
  5
206
330
2
100
AcDbEntity
  8
图层1
 62
     4
100
AcDbMText
 10
8976.329399269948
 20
1916.999981679569
 30
0.0
 40
1.018077673039516
 41
8.136472806840668
 71
     1
 72
     5
  1
A4
  7
ROMANS
 73
     1
 44
1.0
1001
AcDbBlockRepETag
1070
     1
1071
       46
1005
0
  0
LINE
  5
207
330
2
100
AcDbEntity
  8
图层1
100
AcDbLine
 10
8977.575803589138
 20
1914.015352849597
 30
0.0
 11
8977.575803589138
 21
1913.606176476169
 31
0.0
1001
AcDbBlockRepETag
1070
     1
1071
       47
1005
0
  0
LINE
  5
208
330
2
100
AcDbEntity
  8
图层1
  6
CENTER2
 62
     1
 48
0.2
100
AcDbLine
 10
8976.271778399487
 20
1914.470721033818
 30
0.0
 11
8976.271778399487
 21
1913.155727075826
 31
0.0
1001
AcDbBlockRepETag
1070
     1
1071
       48
1005
0
  0
CIRCLE
  5
209
330
2
100
AcDbEntity
  8
图层1
100
AcDbCircle
 10
8976.271778399487
 20
1913.810764662885
 30
0.0
 40
0.2045881867136665
1001
AcDbBlockRepETag
1070
     1
1071
       49
1005
0
  0
LINE
  5
20A
330
2
100
AcDbEntity
  8
图层1
  6
CENTER2
 62
     1
 48
0.2
100
AcDbLine
 10
8975.572163724867
 20
1913.810764662885
 30
0.0
 11
8977.003519595454
 21
1913.810764662885
 31
0.0
1001
AcDbBlockRepETag
1070
     1
1071
       50
1005
0
  0
CIRCLE
  5
20B
330
2
100
AcDbEntity
  8
图层1
100
AcDbCircle
 10
8976.271778399487
 20
1913.810764662885
 30
0.0
 40
0.4091763734273331
1001
AcDbBlockRepETag
1070
     1
1071
       51
1005
0
  0
LINE
  5
20C
330
2
100
AcDbEntity
  8
图层1
 48
0.1
100
AcDbLine
 10
8975.335016024429
 20
1924.459603264158
 30
0.0
 11
8975.335016024429
 21
1912.051164691007
 31
0.0
1001
AcDbBlockRepETag
1070
     1
1071
       52
1005
0
  0
LINE
  5
20D
330
2
100
AcDbEntity
  8
图层1
100
AcDbLine
 10
8938.044711766867
 20
1922.728074156205
 30
0.0
 11
8947.471356887602
 21
1922.728074156205
 31
0.0
1001
AcDbBlockRepETag
1070
     1
1071
       54
1005
0
  0
LINE
  5
20E
330
2
100
AcDbEntity
  8
图层1
100
AcDbLine
 10
8875.24479277201
 20
1924.459603264158
 30
0.0
 11
8947.471356887602
 21
1924.459603264158
 31
0.0
1001
AcDbBlockRepETag
1070
     1
1071
       55
1005
0
  0
MTEXT
  5
20F
330
2
100
AcDbEntity
  8
图层1
100
AcDbMText
 10
8941.23973937156
 20
1924.011245934014
 30
0.0
 40
0.8955312864699461
 41
11.92259093924046
 71
     1
 72
     5
  1
{\C2;PART}
  7
ROMANS
 73
     1
 44
1.0
1001
AcDbBlockRepETag
1070
     1
1071
       56
1005
0
  0
MTEXT
  5
210
102
{ACAD_XDICTIONARY
360
211
102
}
330
2
100
AcDbEntity
  8
图层1
100
AcDbMText
 10
8948.657194410207
 20
1923.817030575033
 30
0.0
 40
0.8955312864699461
 41
11.92259093924046
 71
     1
 72
     5
  1
{\C2; \fPMingLiU|b0|i0|c136|p54;\U+984F \U+8272}
 73
     1
 44
1.0
1001
AcDbBlockRepETag
1070
     1
1071
       57
1005
0
  0
MTEXT
  5
213
330
2
100
AcDbEntity
  8
图层1
100
AcDbMText
 10
8949.102291798592
 20
1922.331472068974
 30
0.0
 40
0.7069983840552205
 41
5.650340495210017
 71
     1
 72
     5
  1
{\Fromans.shx|c134;\C2;COLOR}
  7
ROMANS
 73
     1
 44
1.0
1001
AcDbBlockRepETag
1070
     1
1071
       58
1005
0
  0
MTEXT
  5
214
330
2
100
AcDbEntity
  8
图层1
100
AcDbMText
 10
8971.665715040952
 20
1922.879001369363
 30
0.0
 40
0.7069983840552205
 41
5.650340495210017
 71
     1
 72
     5
  1
{\C2;SCALE}
  7
ROMANS
 73
     1
 44
1.0
1001
AcDbBlockRepETag
1070
     1
1071
       59
1005
0
  0
LINE
  5
215
330
2
100
AcDbEntity
  8
图层1
100
AcDbLine
 10
8954.070008472113
 20
1921.664305127759
 30
0.0
 11
8954.070008472113
 21
1912.051164691007
 31
0.0
1001
AcDbBlockRepETag
1070
     1
1071
       60
1005
0
  0
TEXT
  5
216
330
2
100
AcDbEntity
  8
图层1
 62
     2
100
AcDbText
 10
8943.854160417499
 20
1916.318168325122
 30
0.0
 40
0.7069983840552205
  1
%%p0.20
  7
ROMANS
100
AcDbText
1001
AcDbBlockRepETag
1070
     1
1071
       61
1005
0
  0
LINE
  5
217
330
2
100
AcDbEntity
  8
图层1
100
AcDbLine
 10
8938.044711766867
 20
1915.801957724391
 30
0.0
 11
8947.471356887602
 21
1915.801957724391
 31
0.0
1001
AcDbBlockRepETag
1070
     1
1071
       62
1005
0
  0
TEXT
  5
218
330
2
100
AcDbEntity
  8
图层1
 62
     2
100
AcDbText
 10
8944.141792425851
 20
1912.782149356785
 30
0.0
 40
0.7069983840552205
  1
TOL
  7
ROMANS
100
AcDbText
1001
AcDbBlockRepETag
1070
     1
1071
       63
1005
0
  0
LINE
  5
219
330
2
100
AcDbEntity
  8
图层1
100
AcDbLine
 10
8938.044711766867
 20
1914.071160074023
 30
0.0
 11
8947.471356887602
 21
1914.071160074023
 31
0.0
1001
AcDbBlockRepETag
1070
     1
1071
       64
1005
0
  0
LINE
  5
21A
330
2
100
AcDbEntity
  8
图层1
100
AcDbLine
 10
8947.471356887602
 20
1924.459603264158
 30
0.0
 11
8947.471356887602
 21
1912.051164691007
 31
0.0
1001
AcDbBlockRepETag
1070
     1
1071
       65
1005
0
  0
LINE
  5
21B
330
2
100
AcDbEntity
  8
图层1
100
AcDbLine
 10
8947.471356887602
 20
1924.459603264158
 30
0.0
 11
8947.471356887602
 21
1912.051164691007
 31
0.0
1001
AcDbBlockRepETag
1070
     1
1071
       66
1005
0
  0
TEXT
  5
21C
330
2
100
AcDbEntity
  8
图层1
 62
     2
100
AcDbText
 10
8944.141792425851
 20
1914.51359613846
 30
0.0
 40
0.7069983840552205
  1
%%p 1%%d
  7
ROMANS
100
AcDbText
1001
AcDbBlockRepETag
1070
     1
1071
       67
1005
0
  0
MTEXT
  5
21D
330
2
100
AcDbEntity
  8
图层1
100
AcDbMText
 10
8948.450401959936
 20
1913.318828518729
 30
0.0
 40
0.7069983840552205
 41
5.650340495210017
 71
     1
 72
     5
  1
{\C2;APPROVE}
  7
ROMANS
 73
     1
 44
1.0
1001
AcDbBlockRepETag
1070
     1
1071
       70
1005
0
  0
MTEXT
  5
21E
102
{ACAD_XDICTIONARY
360
21F
102
}
330
2
100
AcDbEntity
  8
图层1
100
AcDbMText
 10
8949.269064267353
 20
1914.898628959505
 30
0.0
 40
0.8955312864699461
 41
11.92259093924046
 71
     1
 72
     5
  1
{\fPMingLiU|b0|i0|c136|p54;\C2;\U+6838 \U+51C6}
 73
     1
 44
1.0
1001
AcDbBlockRepETag
1070
     1
1071
       71
1005
0
  0
LINE
  5
221
330
2
100
AcDbEntity
  8
图层1
 48
0.1
100
AcDbLine
 10
8954.070008472113
 20
1918.888268714493
 30
0.0
 11
8954.070008472113
 21
1924.459603264158
 31
0.0
1001
AcDbBlockRepETag
1070
     1
1071
       72
1005
0
  0
TEXT
  5
222
330
2
100
AcDbEntity
  8
图层1
 62
     2
100
AcDbText
 10
8943.854160417499
 20
1918.176596452204
 30
0.0
 40
0.7069983840552205
  1
%%p0.15
  7
ROMANS
100
AcDbText
1001
AcDbBlockRepETag
1070
     1
1071
       73
1005
0
  0
TEXT
  5
223
330
2
100
AcDbEntity
  8
图层1
 62
     2
100
AcDbText
 10
8943.854160417499
 20
1919.981168073522
 30
0.0
 40
0.7069983840552205
  1
%%p0.10
  7
ROMANS
100
AcDbText
1001
AcDbBlockRepETag
1070
     1
1071
       74
1005
0
  0
TEXT
  5
224
330
2
100
AcDbEntity
  8
图层1
 62
     2
100
AcDbText
 10
8943.854160417499
 20
1921.731883754418
 30
0.0
 40
0.7069983840552205
  1
%%p0.05
  7
ROMANS
100
AcDbText
1001
AcDbBlockRepETag
1070
     1
1071
       75
1005
0
  0
LINE
  5
225
330
2
100
AcDbEntity
  8
图层1
100
AcDbLine
 10
8938.044711766867
 20
1917.533486832345
 30
0.0
 11
8947.471356887602
 21
1917.533486832345
 31
0.0
1001
AcDbBlockRepETag
1070
     1
1071
       76
1005
0
  0
LINE
  5
226
330
2
100
AcDbEntity
  8
图层1
100
AcDbLine
 10
8938.044711766867
 20
1920.996545048251
 30
0.0
 11
8947.471356887602
 21
1920.996545048251
 31
0.0
1001
AcDbBlockRepETag
1070
     1
1071
       77
1005
0
  0
LINE
  5
227
330
2
100
AcDbEntity
  8
图层1
100
AcDbLine
 10
8938.044711766867
 20
1919.265015940293
 30
0.0
 11
8947.471356887602
 21
1919.265015940293
 31
0.0
1001
AcDbBlockRepETag
1070
     1
1071
       78
1005
0
  0
MTEXT
  5
228
102
{ACAD_XDICTIONARY
360
229
102
}
330
2
100
AcDbEntity
  8
图层1
100
AcDbMText
 10
8949.264731911688
 20
1920.516549094341
 30
0.0
 40
0.8955312864699461
 41
11.92259093924046
 71
     1
 72
     5
  1
{\fPMingLiU|b0|i0|c136|p54;\C2;\U+6750 \U+8CEA}
  7
ROMANS
 73
     1
 44
1.0
1001
AcDbBlockRepETag
1070
     1
1071
       79
1005
0
  0
MTEXT
  5
22B
330
2
100
AcDbEntity
  8
图层1
100
AcDbMText
 10
8949.093709278546
 20
1916.092470173285
 30
0.0
 40
0.7069983840552205
 41
5.650322940731722
 71
     1
 72
     5
  1
{\C2;DESIGN}
  7
ROMANS
 73
     1
 44
1.0
1001
AcDbBlockRepETag
1070
     1
1071
       80
1005
0
  0
MTEXT
  5
22C
330
2
100
AcDbEntity
  8
图层1
100
AcDbMText
 10
8948.707880841164
 20
1918.897807522759
 30
0.0
 40
0.7069983840552205
 41
5.650340495210017
 71
     1
 72
     5
  1
{\C2;MATERIAL\f??|b0|i0|c134|p6; }
  7
ROMANS
 73
     1
 44
1.0
1001
AcDbBlockRepETag
1070
     1
1071
       81
1005
0
  0
MTEXT
  5
22D
102
{ACAD_XDICTIONARY
360
22E
102
}
330
2
100
AcDbEntity
  8
图层1
100
AcDbMText
 10
8949.443828536645
 20
1917.611477558462
 30
0.0
 40
0.8955312864699461
 41
11.92259093924046
 71
     1
 72
     5
  1
{\fPMingLiU|b0|i0|c136|p54;\C2;\U+8A2D \U+8A08}
 73
     1
 44
1.0
1001
AcDbBlockRepETag
1070
     1
1071
       82
1005
0
  0
LINE
  5
230
330
2
100
AcDbEntity
  8
图层1
 48
0.1
100
AcDbLine
 10
8962.429641883018
 20
1912.051164691007
 30
0.0
 11
8962.429641883018
 21
1917.863023132318
 31
0.0
1001
AcDbBlockRepETag
1070
     1
1071
       83
1005
0
  0
MTEXT
  5
231
330
2
100
AcDbEntity
  8
图层1
 62
     6
100
AcDbMText
 10
8879.41217627827
 20
1913.375928783012
 30
0.0
 40
0.7069983840552205
 41
5.650340495210017
 71
     1
 72
     5
  1
{\C2;REV}
  7
ROMANS
 73
     1
 44
1.0
1001
AcDbBlockRepETag
1070
     1
1071
       84
1005
0
  0
LINE
  5
232
330
2
100
AcDbEntity
  8
图层1
100
AcDbLine
 10
8875.24479277201
 20
1912.051164691007
 30
0.0
 11
8875.24479277201
 21
1924.459603264158
 31
0.0
1001
AcDbBlockRepETag
1070
     1
1071
       85
1005
0
  0
LINE
  5
233
330
2
100
AcDbEntity
  8
图层1
100
AcDbLine
 10
8882.062646445501
 20
1924.459603264158
 30
0.0
 11
8882.062646445501
 21
1912.051164691007
 31
0.0
1001
AcDbBlockRepETag
1070
     1
1071
       86
1005
0
  0
LINE
  5
234
330
2
100
AcDbEntity
  8
图层1
100
AcDbLine
 10
8878.173398718931
 20
1924.459603264158
 30
0.0
 11
8878.173398718931
 21
1912.051164691007
 31
0.0
1001
AcDbBlockRepETag
1070
     1
1071
       87
1005
0
  0
MTEXT
  5
235
330
2
100
AcDbEntity
  8
图层1
100
AcDbMText
 10
8876.797817357205
 20
1918.020775138762
 30
0.0
 40
1.178330640092034
 41
3.299346798621349
 71
     5
 72
     5
  1
{\Fromans|c0;\C2;C\Fromans|c134;\P\Fromans|c0;H\Fromans|c134;\P\Fromans|c0;A\Fromans|c134;\P\Fromans|c0;N\Fromans|c134;\P\Fromans|c0;G\Fromans|c134;\P\Fromans|c0;E}
 73
     1
 44
1.0
1001
AcDbBlockRepETag
1070
     1
1071
       88
1005
0
  0
MTEXT
  5
236
102
{ACAD_XDICTIONARY
360
237
102
}
330
2
100
AcDbEntity
  8
图层1
 62
     6
100
AcDbMText
 10
8879.005314702739
 20
1914.830467721697
 30
0.0
 40
0.8955312864699461
 41
4.090094916360734
 71
     1
 72
     5
  1
{\fPMingLiU|b0|i0|c136|p54;\C2;\U+7248\U+6B21}
 73
     1
 44
1.0
1001
AcDbBlockRepETag
1070
     1
1071
       89
1005
0
  0
MTEXT
  5
239
330
2
100
AcDbEntity
  8
图层1
100
AcDbMText
 10
8924.890135278539
 20
1913.387044520596
 30
0.0
 40
0.7069983840552205
 41
14.83038101662465
 71
     1
 72
     5
  1
{\C2;CHANGE}
  7
ROMANS
 73
     1
 44
1.0
1001
AcDbBlockRepETag
1070
     1
1071
       90
1005
0
  0
LINE
  5
23A
330
2
100
AcDbEntity
  8
图层1
100
AcDbLine
 10
8930.607864470351
 20
1924.459603264158
 30
0.0
 11
8930.607864470351
 21
1912.051164691007
 31
0.0
1001
AcDbBlockRepETag
1070
     1
1071
       91
1005
0
  0
LINE
  5
23B
330
2
100
AcDbEntity
  8
图层1
100
AcDbLine
 10
8923.17101717386
 20
1924.459603264158
 30
0.0
 11
8923.17101717386
 21
1912.051164691007
 31
0.0
1001
AcDbBlockRepETag
1070
     1
1071
       92
1005
0
  0
LINE
  5
23C
330
2
100
AcDbEntity
  8
图层1
100
AcDbLine
 10
8890.382942564551
 20
1924.459603264158
 30
0.0
 11
8890.382942564551
 21
1912.051164691007
 31
0.0
1001
AcDbBlockRepETag
1070
     1
1071
       93
1005
0
  0
MTEXT
  5
23D
330
2
100
AcDbEntity
  8
图层1
100
AcDbMText
 10
8898.979343573472
 20
1913.360767134246
 30
0.0
 40
0.7069983840552205
 41
14.83038101662465
 71
     1
 72
     5
  1
{\C2;MODIFICATION DESCRIPTION}
  7
ROMANS
 73
     1
 44
1.0
1001
AcDbBlockRepETag
1070
     1
1071
       94
1005
0
  0
MTEXT
  5
23E
330
2
100
AcDbEntity
  8
图层1
 62
     6
100
AcDbMText
 10
8885.134730761127
 20
1913.337474905092
 30
0.0
 40
0.7069983840552205
 41
5.650340495210017
 71
     1
 72
     5
  1
{\C2;DATE}
  7
ROMANS
 73
     1
 44
1.0
1001
AcDbBlockRepETag
1070
     1
1071
       95
1005
0
  0
MTEXT
  5
23F
102
{ACAD_XDICTIONARY
360
240
102
}
330
2
100
AcDbEntity
  8
图层1
 62
     6
100
AcDbMText
 10
8884.921794666075
 20
1914.851513249746
 30
0.0
 40
0.8955312864699461
 41
4.090094916360734
 71
     1
 72
     5
  1
{\fPMingLiU|b0|i0|c136|p54;\C2;\U+65E5\U+671F}
 73
     1
 44
1.0
1001
AcDbBlockRepETag
1070
     1
1071
       96
1005
0
  0
MTEXT
  5
242
102
{ACAD_XDICTIONARY
360
243
102
}
330
2
100
AcDbEntity
  8
图层1
100
AcDbMText
 10
8902.204931521261
 20
1914.871278397579
 30
0.0
 40
0.8955312864699461
 41
11.92259093924046
 71
     1
 72
     5
  1
{\fPMingLiU|b0|i0|c136|p54;\C2;\U+8B8A\U+3000\U+66F4\U+3000\U+8AAA\U+3000\U+660E}
  7
ROMANS
 73
     1
 44
1.0
1001
AcDbBlockRepETag
1070
     1
1071
       97
1005
0
  0
MTEXT
  5
245
102
{ACAD_XDICTIONARY
360
246
102
}
330
2
100
AcDbEntity
  8
图层1
100
AcDbMText
 10
8925.514623191487
 20
1914.846250936748
 30
0.0
 40
0.8955312864699461
 41
11.92259093924046
 71
     1
 72
     5
  1
{\fPMingLiU|b0|i0|c136|p54;\C2;\U+8B8A \U+66F4}
 73
     1
 44
1.0
1001
AcDbBlockRepETag
1070
     1
1071
       98
1005
0
  0
MTEXT
  5
248
102
{ACAD_XDICTIONARY
360
249
102
}
330
2
100
AcDbEntity
  8
图层1
100
AcDbMText
 10
8932.612880497989
 20
1914.885639389587
 30
0.0
 40
0.8955312864699461
 41
11.92259093924046
 71
     1
 72
     5
  1
{\fPMingLiU|b0|i0|c136|p54;\C2;\U+6838 \U+51C6}
 73
     1
 44
1.0
1001
AcDbBlockRepETag
1070
     1
1071
       99
1005
0
  0
TEXT
  5
24B
330
2
100
AcDbEntity
  8
图层1
 62
     2
100
AcDbText
 10
8938.266851100193
 20
1916.223901873911
 30
0.0
 40
0.7069983840552205
  1
30 ~
  7
ROMANS
100
AcDbText
1001
AcDbBlockRepETag
1070
     1
1071
      103
1005
0
  0
TEXT
  5
24C
330
2
100
AcDbEntity
  8
图层1
 62
     2
100
AcDbText
 10
8939.591691427915
 20
1912.754471089497
 30
0.0
 40
0.7069983840552205
  1
DIM
  7
ROMANS
100
AcDbText
1001
AcDbBlockRepETag
1070
     1
1071
      104
1005
0
  0
LINE
  5
24D
330
2
100
AcDbEntity
  8
图层1
100
AcDbLine
 10
8943.229366583267
 20
1922.728074156205
 30
0.0
 11
8943.229366583267
 21
1912.051164691007
 31
0.0
1001
AcDbBlockRepETag
1070
     1
1071
      105
1005
0
  0
LINE
  5
24E
330
2
100
AcDbEntity
  8
图层1
100
AcDbLine
 10
8938.044711766867
 20
1924.459603264158
 30
0.0
 11
8938.044711766867
 21
1912.051164691007
 31
0.0
1001
AcDbBlockRepETag
1070
     1
1071
      106
1005
0
  0
TEXT
  5
24F
330
2
100
AcDbEntity
  8
图层1
 62
     2
100
AcDbText
 10
8939.182688718087
 20
1914.707696336027
 30
0.0
 40
0.7069983840552205
  1
Angle
  7
ROMANS
100
AcDbText
1001
AcDbBlockRepETag
1070
     1
1071
      107
1005
0
  0
LINE
  5
250
330
2
100
AcDbEntity
  8
图层1
100
AcDbLine
 10
8938.044711766867
 20
1915.053698127513
 30
0.0
 11
8878.173398718931
 21
1915.053698127513
 31
0.0
1001
AcDbBlockRepETag
1070
     1
1071
      108
1005
0
  0
TEXT
  5
251
330
2
100
AcDbEntity
  8
图层1
 62
     2
100
AcDbText
 10
8937.460472991952
 20
1918.082330000996
 30
0.0
 40
0.7069983840552205
  1
 20 ~ 30
  7
ROMANS
100
AcDbText
1001
AcDbBlockRepETag
1070
     1
1071
      109
1005
0
  0
TEXT
  5
252
330
2
100
AcDbEntity
  8
图层1
 62
     2
100
AcDbText
 10
8937.772893934861
 20
1921.637617303207
 30
0.0
 40
0.7069983840552205
  1
 0 ~ 10
  7
ROMANS
100
AcDbText
1001
AcDbBlockRepETag
1070
     1
1071
      110
1005
0
  0
TEXT
  5
253
330
2
100
AcDbEntity
  8
图层1
 62
     2
100
AcDbText
 10
8937.303115048512
 20
1919.886901622312
 30
0.0
 40
0.7069983840552205
  1
 10 ~ 20
  7
ROMANS
100
AcDbText
1001
AcDbBlockRepETag
1070
     1
1071
      111
1005
0
  0
LINE
  5
254
330
2
100
AcDbEntity
  8
图层1
 48
0.1
100
AcDbLine
 10
8938.044711766867
 20
1920.622415249814
 30
0.0
 11
8928.16371217183
 21
1920.622415249814
 31
0.0
1001
AcDbBlockRepETag
1070
     1
1071
      112
1005
0
  0
LINE
  5
255
330
2
100
AcDbEntity
  8
图层1
100
AcDbLine
 10
8938.044711766867
 20
1917.838056688664
 30
0.0
 11
8878.173398718931
 21
1917.838056688664
 31
0.0
1001
AcDbBlockRepETag
1070
     1
1071
      113
1005
0
  0
MTEXT
  5
256
330
2
100
AcDbEntity
  8
图层1
100
AcDbMText
 10
8931.916206730681
 20
1913.401596364341
 30
0.0
 40
0.7069983840552205
 41
14.83038101662465
 71
     1
 72
     5
  1
{\C2;APPROVE}
  7
ROMANS
 73
     1
 44
1.0
1001
AcDbBlockRepETag
1070
     1
1071
      114
1005
0
  0
LINE
  5
257
330
2
100
AcDbEntity
  8
图层1
100
AcDbLine
 10
8936.755801365329
 20
1920.622415249814
 30
0.0
 11
8878.173398718931
 21
1920.622415249814
 31
0.0
1001
AcDbBlockRepETag
1070
     1
1071
      115
1005
0
  0
MTEXT
  5
258
330
2
100
AcDbEntity
  8
0
 62
     0
 48
0.05
100
AcDbMText
 10
8985.219896277097
 20
1921.91583445565
 30
0.0
 40
2.368041802801879
 41
49.1986182634514
 71
     1
 72
     5
  1
{\fSimSun|b0|i0|c134|p2;\C1;ASAHI OPTICS LIMITED}
  7
ROMANC
 73
     1
 44
1.0
1001
AcDbBlockRepETag
1070
     1
1071
      116
1005
0
  0
HATCH
  5
259
330
2
100
AcDbEntity
  8
dim
 62
     1
 48
0.05
100
AcDbHatch
 10
0.0
 20
0.0
 30
0.0
210
0.0
220
0.0
230
1.0
  2
SOLID
 70
     1
 71
     0
 91
        2
 92
        7
 72
     0
 73
     1
 93
        4
 10
8982.117932756493
 20
1920.749607364408
 10
8984.536965803062
 20
1919.526561172487
 10
8982.117932756493
 20
1923.153134976556
 10
8979.698899709928
 20
1919.526561172488
 97
        0
 92
        7
 72
     0
 73
     1
 93
        4
 10
8979.622563053913
 20
1919.129567235406
 10
8982.117932756493
 20
1919.129567235406
 10
8984.613302459074
 20
1919.129567235406
 10
8982.117932756493
 20
1920.213494338961
 97
        0
 75
     0
 76
     1
 47
0.1612569124928189
 98
        2
 10
8982.141712522029
 20
1921.269260469351
 10
8981.971499921916
 20
1919.67448540873
450
        0
451
        0
460
0.0
461
0.0
452
        1
462
1.0
453
        2
463
0.0
 63
     5
421
      255
463
1.0
 63
     7
421
 16777215
470
LINEAR
1001
ACAD
1010
0.0
1020
0.0
1030
0.0
1001
AcDbBlockRepETag
1070
     1
1071
      117
1005
0
  0
LINE
  5
25D
330
2
100
AcDbEntity
  8
dim
 62
     1
 48
0.05
100
AcDbLine
 10
8982.117932756493
 20
1923.153134976556
 30
0.0
 11
8979.698899709928
 21
1919.526561172487
 31
0.0
1001
AcDbBlockRepETag
1070
     1
1071
      118
1005
0
  0
LINE
  5
25E
330
2
100
AcDbEntity
  8
dim
 62
     1
 48
0.05
100
AcDbLine
 10
8979.698899709928
 20
1919.526561172487
 30
0.0
 11
8982.117932756493
 21
1920.749607364408
 31
0.0
1001
AcDbBlockRepETag
1070
     1
1071
      119
1005
0
  0
LINE
  5
25F
330
2
100
AcDbEntity
  8
dim
 62
     1
 48
0.05
100
AcDbLine
 10
8982.117932756493
 20
1920.213494338961
 30
0.0
 11
8979.622563053913
 21
1919.129567235406
 31
0.0
1001
AcDbBlockRepETag
1070
     1
1071
      120
1005
0
  0
LINE
  5
260
330
2
100
AcDbEntity
  8
dim
 62
     1
 48
0.05
100
AcDbLine
 10
8979.622563053913
 20
1919.129567235406
 30
0.0
 11
8982.117932756493
 21
1919.129567235406
 31
0.0
1001
AcDbBlockRepETag
1070
     1
1071
      121
1005
0
  0
LINE
  5
261
330
2
100
AcDbEntity
  8
dim
 62
     1
 48
0.05
100
AcDbLine
 10
8982.117932756493
 20
1923.153134976556
 30
0.0
 11
8984.536965803062
 21
1919.526561172487
 31
0.0
1001
AcDbBlockRepETag
1070
     1
1071
      122
1005
0
  0
LINE
  5
262
330
2
100
AcDbEntity
  8
dim
 62
     1
 48
0.05
100
AcDbLine
 10
8984.536965803062
 20
1919.526561172487
 30
0.0
 11
8982.117932756493
 21
1920.749607364408
 31
0.0
1001
AcDbBlockRepETag
1070
     1
1071
      123
1005
0
  0
LINE
  5
263
330
2
100
AcDbEntity
  8
dim
 62
     1
 48
0.05
100
AcDbLine
 10
8982.117932756493
 20
1920.213494338961
 30
0.0
 11
8984.613302459074
 21
1919.129567235406
 31
0.0
1001
AcDbBlockRepETag
1070
     1
1071
      124
1005
0
  0
LINE
  5
264
330
2
100
AcDbEntity
  8
dim
 62
     1
 48
0.05
100
AcDbLine
 10
8984.613302459074
 20
1919.129567235406
 30
0.0
 11
8982.117932756493
 21
1919.129567235406
 31
0.0
1001
AcDbBlockRepETag
1070
     1
1071
      125
1005
0
  0
MTEXT
  5
265
330
2
100
AcDbEntity
  8
dim
 62
     1
 48
0.05
100
AcDbMText
 10
8980.449157130534
 20
1918.933792593439
 30
0.0
 40
0.7415320871558989
 41
6.274148534654817
 71
     1
 72
     5
  1
{\fSTSong|b0|i0|c0|p2;ASAHI}
  7
ROMANC
 73
     1
 44
1.0
1001
AcDbBlockRepETag
1070
     1
1071
      126
1005
0
  0
MTEXT
  5
266
330
2
100
AcDbEntity
  8
图层1
 62
     4
100
AcDbMText
 10
8976.436296236327
 20
1923.260576802141
 30
0.0
 40
1.018077673039516
 41
8.136472806840668
 71
     1
 72
     5
  1
1:1
  7
ROMANS
 73
     1
 44
1.0
1001
AcDbBlockRepETag
1070
     1
1071
      130
1005
0
  0
MTEXT
  5
267
330
2
100
AcDbEntity
  8
图层1
100
AcDbMText
 10
8956.142449255493
 20
1923.499150361737
 30
0.0
 40
1.541186611830303
 41
7.532598155977771
 71
     1
 72
     5
  1
Transparency
 73
     1
 44
1.0
1001
AcDbBlockRepETag
1070
     1
1071
      131
1005
0
  0
INSERT
  5
268
330
2
100
AcDbEntity
  8
dim
 62
     0
100
AcDbBlockReference
  2
dfdfgrf
 10
8037.376129961373
 20
1838.985379772783
 30
0.0
 41
0.2150400000000445
 42
0.2150399999999308
 43
0.21504
  0
LINE
  5
26E
330
2
100
AcDbEntity
  8
0
 48
0.05
100
AcDbLine
 10
9019.55681946417
 20
1931.239575961052
 30
0.0
 11
9019.55681946417
 21
1924.459603264171
 31
0.0
  0
LINE
  5
26F
330
2
100
AcDbEntity
  8
0
  6
Continuous
 62
     7
370
    15
100
AcDbLine
 10
9013.888266859668
 20
1933.402674280232
 30
0.0
 11
9013.735991545338
 21
1933.250397764272
 31
0.0
  0
TEXT
  5
270
330
2
100
AcDbEntity
  8
hatch
100
AcDbText
 10
8994.32300018779
 20
1916.017494195024
 30
0.0
 40
1.172112222246736
  1
ASL280D40HXXLEDCAcaps
  7
cha1
100
AcDbText
1001
ACAD
1000
MTEXTBEGIN
1070
    73
1070
     1
1070
    44
1040
1.0
1070
    74
1070
     0
1000
MTEXTEND
  0
HATCH
  5
271
330
2
100
AcDbEntity
  8
0
  6
Continuous
 62
     2
100
AcDbHatch
 10
0.0
 20
0.0
 30
0.0
210
0.0
220
0.0
230
1.0
  2
ANSI31
 70
     0
 71
     0
 91
        1
 92
        1
 93
       12
 72
     1
 10
9068.317308866056
 20
1972.465115123355
 11
9068.317308866056
 21
1973.788906301016
 72
     1
 10
9078.51504429478
 20
1973.254465632533
 11
9068.317308866062
 21
1973.788906301013
 72
     2
 10
9078.462718666635
 20
1972.255822176434
 40
1.00001345336
 50
0.1400457093
 51
87.00063254129998
 73
     1
 72
     1
 10
9079.462734355171
 20
1972.257806614929
 11
9079.462734355171
 21
1967.427475213889
 72
     1
 10
9079.462734355171
 20
1967.427475213895
 11
9076.47420278335
 21
1967.479640227675
 72
     1
 10
9076.474202783387
 20
1967.47964022767
 11
9076.474202783387
 21
1970.97987397395
 72
     1
 10
9076.474202783387
 20
1970.979873973949
 11
9075.813325240527
 21
1971.061019534289
 72
     1
 10
9075.415859814983
 20
1970.519133648297
 11
9075.813325240522
 21
1971.061019534297
 72
     2
 10
9075.173955866473
 20
1970.696566679253
 40
0.29999999944
 50
243.5513931029
 51
323.7404940074
 73
     1
 72
     1
 10
9073.974380340821
 20
1970.958239706837
 11
9075.040337398641
 21
1970.427966411277
 72
     1
 10
9073.974380340821
 20
1970.958239706837
 11
9073.974380340821
 21
1972.316979493797
 72
     1
 10
9068.317308866056
 20
1972.465115123355
 11
9073.974380340816
 21
1972.316979493795
 97
        0
 75
     0
 76
     2
 52
270.0
 41
25.4
 77
     0
 78
     1
 53
315.0
 43
9067.122847891981
 44
1986.387765596511
 45
0.16043790874
 46
0.16043790874
 79
     0
 98
        1
 10
8886.683245695998
 20
1726.647446777453
  0
LINE
  5
272
102
{ACAD_REACTORS
330
3F8
102
}
330
2
100
AcDbEntity
  8
0
  6
Continuous
 62
     7
100
AcDbLine
 10
9087.529570576053
 20
1967.622019338392
 30
0.0
 11
9087.529570576053
 21
1972.790126439293
 31
0.0
  0
LINE
  5
273
330
2
100
AcDbEntity
  8
0
  6
Continuous
 62
     7
100
AcDbLine
 10
9088.038451666523
 20
1972.312761310713
 30
0.0
 11
9088.038451666523
 21
1967.462988945255
 31
0.0
  0
LINE
  5
274
330
2
100
AcDbEntity
  8
0
  6
Continuous
 62
     7
100
AcDbLine
 10
9089.125178271309
 20
1967.443119246614
 30
0.0
 11
9089.125178271309
 21
1972.303333927994
 31
0.0
  0
LINE
  5
275
330
2
100
AcDbEntity
  8
0
  6
Continuous
 62
     7
100
AcDbLine
 10
9116.928376995508
 20
1972.262385892027
 30
0.0
 11
9116.900513817776
 21
1972.262022834591
 31
0.0
  0
LINE
  5
276
330
2
100
AcDbEntity
  8
0
  6
Continuous
 62
     7
100
AcDbLine
 10
9125.871105058717
 20
1972.299180387912
 30
0.0
 11
9125.837368854892
 21
1972.298749758847
 31
0.0
  0
LINE
  5
277
330
2
100
AcDbEntity
  8
0
  6
Continuous
 62
     7
100
AcDbLine
 10
9125.922839542488
 20
1972.299600145772
 30
0.0
 11
9125.905555871186
 21
1972.299415030574
 31
0.0
  0
LINE
  5
278
330
2
100
AcDbEntity
  8
0
  6
Continuous
 62
     7
100
AcDbLine
 10
9125.905555871186
 20
1972.299415030574
 30
0.0
 11
9125.871105058717
 21
1972.299180387912
 31
0.0
  0
LINE
  5
279
330
2
100
AcDbEntity
  8
0
  6
Continuous
 62
     7
100
AcDbLine
 10
9125.970690907285
 20
1972.299779172594
 30
0.0
 11
9125.922839542488
 21
1972.299600145772
 31
0.0
  0
LINE
  5
27A
330
2
100
AcDbEntity
  8
0
  6
Continuous
 62
     7
100
AcDbLine
 10
9117.187663055565
 20
1972.262815731156
 30
0.0
 11
9116.928376995508
 21
1972.262385892027
 31
0.0
  0
LINE
  5
27B
330
2
100
AcDbEntity
  8
0
  6
Continuous
 62
     7
100
AcDbLine
 10
9124.352132178453
 20
1972.286576570091
 30
0.0
 11
9121.518661947501
 21
1972.285650445454
 31
0.0
  0
LINE
  5
27C
330
2
100
AcDbEntity
  8
0
  6
Continuous
 62
     7
100
AcDbLine
 10
9116.80879975435
 20
1972.259505163733
 30
0.0
 11
9107.552461566536
 21
1972.257846566586
 31
0.0
  0
LINE
  5
27D
330
2
100
AcDbEntity
  8
0
  6
Continuous
 62
     7
100
AcDbLine
 10
9096.952404849451
 20
1972.281242526907
 30
0.0
 11
9091.882614016288
 21
1972.281380974688
 31
0.0
  0
LINE
  5
27E
330
2
100
AcDbEntity
  8
0
  6
Continuous
 62
     7
100
AcDbLine
 10
9107.537474514991
 20
1972.258073878809
 30
0.0
 11
9101.781779120081
 21
1972.26129841389
 31
0.0
  0
LINE
  5
27F
330
2
100
AcDbEntity
  8
0
  6
Continuous
 62
     7
100
AcDbLine
 10
9101.781779120081
 20
1972.26129841389
 30
0.0
 11
9099.850268505122
 21
1972.263456016888
 31
0.0
  0
LINE
  5
280
330
2
100
AcDbEntity
  8
0
  6
Continuous
 62
     7
100
AcDbLine
 10
9107.552461566536
 20
1972.257846566586
 30
0.0
 11
9107.537474514991
 21
1972.258073878809
 31
0.0
  0
LINE
  5
281
102
{ACAD_REACTORS
330
420
102
}
330
2
100
AcDbEntity
  8
0
  6
Continuous
 62
     7
100
AcDbLine
 10
9126.567752560502
 20
1973.788906359434
 30
0.0
 11
9088.528143092482
 21
1973.788906359434
 31
0.0
  0
LINE
  5
282
330
2
100
AcDbEntity
  8
0
  6
Continuous
 62
     7
100
AcDbLine
 10
9125.970690909818
 20
1967.443117181596
 30
0.0
 11
9125.970690909818
 21
1972.300016827692
 31
0.0
  0
LINE
  5
283
330
2
100
AcDbEntity
  8
0
  6
Continuous
 62
     7
100
AcDbLine
 10
9127.057629231265
 20
1967.462988843654
 30
0.0
 11
9127.057629231265
 21
1972.312952130749
 31
0.0
  0
LINE
  5
284
102
{ACAD_REACTORS
330
3F8
102
}
330
2
100
AcDbEntity
  8
0
  6
Continuous
 62
     7
100
AcDbLine
 10
9127.566510578226
 20
1972.790309654578
 30
0.0
 11
9127.566510578226
 21
1967.622019338392
 31
0.0
  0
LINE
  5
285
330
2
100
AcDbEntity
  8
0
  6
Continuous
 62
     7
100
AcDbLine
 10
9089.29518838339
 20
1945.031417509271
 30
0.0
 11
9089.29518838339
 21
1945.319975621511
 31
0.0
  0
LINE
  5
286
330
2
100
AcDbEntity
  8
0
  6
Continuous
 62
     7
100
AcDbLine
 10
9089.059736100974
 20
1945.719501027692
 30
0.0
 11
9089.677574131219
 21
1952.781422029555
 31
0.0
  0
LINE
  5
287
330
2
100
AcDbEntity
  8
0
  6
Continuous
 62
     7
100
AcDbLine
 10
9089.059736100974
 20
1945.719501027692
 30
0.0
 11
9089.29518838339
 21
1945.319975621511
 31
0.0
  0
LINE
  5
288
330
2
100
AcDbEntity
  8
0
  6
Continuous
 62
     7
100
AcDbLine
 10
9089.7420407333
 20
1947.781422029569
 30
0.0
 11
9089.465848303737
 21
1944.624528114771
 31
0.0
  0
LINE
  5
289
330
2
100
AcDbEntity
  8
0
  6
Continuous
 62
     7
100
AcDbLine
 10
9094.250744774022
 20
1952.781422029555
 30
0.0
 11
9093.548040599054
 21
1947.781422029569
 31
0.0
  0
LINE
  5
28A
330
2
100
AcDbEntity
  8
0
  6
Continuous
 62
     7
100
AcDbLine
 10
9089.29518838339
 20
1945.031417509271
 30
0.0
 11
9088.932587561737
 21
1944.624528122396
 31
0.0
  0
LINE
  5
28B
330
2
100
AcDbEntity
  8
0
  6
Continuous
 62
     7
100
AcDbLine
 10
9087.529570576053
 20
1944.624528114771
 30
0.0
 11
9127.566510578226
 21
1944.624528114771
 31
0.0
  0
LINE
  5
28C
330
2
100
AcDbEntity
  8
0
  6
Continuous
 62
     7
100
AcDbLine
 10
9125.354040469263
 20
1947.781422029569
 30
0.0
 11
9121.548040600975
 21
1947.781422029569
 31
0.0
  0
LINE
  5
28D
330
2
100
AcDbEntity
  8
0
  6
Continuous
 62
     7
100
AcDbLine
 10
9089.7420407333
 20
1947.781422029569
 30
0.0
 11
9093.548040599054
 21
1947.781422029569
 31
0.0
  0
LINE
  5
28E
330
2
100
AcDbEntity
  8
0
  6
Continuous
 62
     7
100
AcDbLine
 10
9105.278411357215
 20
1951.142248927412
 30
0.0
 11
9105.048040601266
 21
1952.781422029555
 31
0.0
  0
LINE
  5
28F
330
2
100
AcDbEntity
  8
0
  6
Continuous
 62
     7
100
AcDbLine
 10
9106.268667946674
 20
1950.281422028289
 30
0.0
 11
9108.827413707988
 21
1950.281422028289
 31
0.0
  0
LINE
  5
290
330
2
100
AcDbEntity
  8
0
  6
Continuous
 62
     7
100
AcDbLine
 10
9109.846523963426
 20
1951.347556644818
 30
0.0
 11
9105.249557239165
 21
1951.347556644818
 31
0.0
  0
LINE
  5
291
102
{ACAD_REACTORS
330
40C
102
}
330
2
100
AcDbEntity
  8
0
  6
Continuous
 62
     7
100
AcDbLine
 10
9105.196781004854
 20
1951.72307906115
 30
0.0
 11
9109.899300195177
 21
1951.72307906115
 31
0.0
  0
LINE
  5
292
330
2
100
AcDbEntity
  8
0
  6
Continuous
 62
     7
100
AcDbLine
 10
9109.817669845376
 20
1951.142248927412
 30
0.0
 11
9110.048040601267
 21
1952.781422029555
 31
0.0
  0
LINE
  5
293
330
2
100
AcDbEntity
  8
0
  6
Continuous
 62
     7
100
AcDbLine
 10
9105.140920880325
 20
1952.120544486693
 30
0.0
 11
9109.955160319648
 21
1952.120544486693
 31
0.0
  0
LINE
  5
294
102
{ACAD_REACTORS
330
40C
102
}
330
2
100
AcDbEntity
  8
0
  6
Continuous
 62
     7
100
AcDbLine
 10
9089.677574131219
 20
1952.781422029555
 30
0.0
 11
9125.418507068813
 21
1952.781422029555
 31
0.0
  0
LINE
  5
295
330
2
100
AcDbEntity
  8
0
  6
Continuous
 62
     7
100
AcDbLine
 10
9126.163493640795
 20
1944.62452811985
 30
0.0
 11
9125.800892816583
 21
1945.031417509271
 31
0.0
  0
LINE
  5
296
330
2
100
AcDbEntity
  8
0
  6
Continuous
 62
     7
100
AcDbLine
 10
9120.845336425977
 20
1952.781422029555
 30
0.0
 11
9121.548040600975
 21
1947.781422029569
 31
0.0
  0
LINE
  5
297
330
2
100
AcDbEntity
  8
0
  6
Continuous
 62
     7
100
AcDbLine
 10
9125.630232898854
 20
1944.624528114771
 30
0.0
 11
9125.354040469263
 21
1947.781422029569
 31
0.0
  0
LINE
  5
298
330
2
100
AcDbEntity
  8
0
  6
Continuous
 62
     7
100
AcDbLine
 10
9125.418507068813
 20
1952.781422029555
 30
0.0
 11
9126.036345099057
 21
1945.719501027692
 31
0.0
  0
LINE
  5
299
330
2
100
AcDbEntity
  8
0
  6
Continuous
 62
     7
100
AcDbLine
 10
9125.800892816583
 20
1945.319975621511
 30
0.0
 11
9125.800892816583
 21
1945.031417509271
 31
0.0
  0
LINE
  5
29A
330
2
100
AcDbEntity
  8
0
  6
Continuous
 62
     7
100
AcDbLine
 10
9125.800892816583
 20
1945.319975621511
 30
0.0
 11
9126.036345099057
 21
1945.719501027692
 31
0.0
  0
LINE
  5
29B
330
2
100
AcDbEntity
  8
0
  6
Continuous
 62
     7
100
AcDbLine
 10
9125.837371598102
 20
1982.59296585821
 30
0.0
 11
9125.970690907285
 21
1982.60598293403
 31
0.0
  0
LINE
  5
29C
330
2
100
AcDbEntity
  8
0
  6
Continuous
 62
     7
100
AcDbLine
 10
9125.837341374618
 20
1982.593275646773
 30
0.0
 11
9125.871091378288
 21
1982.596249646412
 31
0.0
  0
LINE
  5
29D
330
2
100
AcDbEntity
  8
0
  6
Continuous
 62
     7
100
AcDbLine
 10
9121.51867375088
 20
1982.222755760435
 30
0.0
 11
9122.380474927968
 21
1982.288661826234
 31
0.0
  0
LINE
  5
29E
330
2
100
AcDbEntity
  8
0
  6
Continuous
 62
     7
100
AcDbLine
 10
9116.808907490968
 20
1981.932523833915
 30
0.0
 11
9117.187789118283
 21
1981.951505482509
 31
0.0
  0
LINE
  5
29F
330
2
100
AcDbEntity
  8
0
  6
Continuous
 62
     7
100
AcDbLine
 10
9116.80798408417
 20
1981.951282478134
 30
0.0
 11
9117.186956371693
 21
1981.967755838632
 31
0.0
  0
LINE
  5
2A0
102
{ACAD_REACTORS
330
3E4
102
}
330
2
100
AcDbEntity
  8
0
  6
Continuous
 62
     7
100
AcDbLine
 10
9107.552461566536
 20
1981.705339965192
 30
0.0
 11
9107.537474514991
 21
1981.705340209031
 31
0.0
  0
LINE
  5
2A1
330
2
100
AcDbEntity
  8
0
  6
Continuous
 62
     7
100
AcDbLine
 10
9089.351837609708
 20
1982.583928266431
 30
0.0
 11
9093.924717513976
 21
1982.197316431076
 31
0.0
  0
LINE
  5
2A2
330
2
100
AcDbEntity
  8
0
  6
Continuous
 62
     7
100
AcDbLine
 10
9089.351803146987
 20
1982.583929894572
 30
0.0
 11
9089.125232924491
 21
1982.605998356914
 31
0.0
  0
LINE
  5
2A3
102
{ACAD_REACTORS
330
3E4
102
}
330
2
100
AcDbEntity
  8
0
  6
Continuous
 62
     7
100
AcDbLine
 10
9127.566510578226
 20
1992.855227131979
 30
0.0
 11
9087.529570576053
 21
1992.855227131979
 31
0.0
  0
LINE
  5
2A4
330
2
100
AcDbEntity
  8
0
  6
Continuous
 62
     7
100
AcDbLine
 10
9127.057629231265
 20
1983.744375851551
 30
0.0
 11
9127.057366117707
 21
1983.739450623914
 31
0.0
  0
LINE
  5
2A5
330
2
100
AcDbEntity
  8
0
  6
Continuous
 62
     7
100
AcDbLine
 10
9068.317308866056
 20
1967.622019338392
 30
0.0
 11
9068.317308866056
 21
1973.788906301008
 31
0.0
  0
LINE
  5
2A6
330
2
100
AcDbEntity
  8
0
  6
Continuous
 62
     7
100
AcDbLine
 10
9068.724198260536
 20
1967.614917058971
 30
0.0
 11
9068.724198260536
 21
1968.898616632796
 31
0.0
  0
LINE
  5
2A7
330
2
100
AcDbEntity
  8
0
  6
Continuous
 62
     7
100
AcDbLine
 10
9069.01275637276
 20
1967.60988025929
 30
0.0
 11
9069.01275637276
 21
1968.903653435009
 31
0.0
  0
LINE
  5
2A8
330
2
100
AcDbEntity
  8
0
  6
Continuous
 62
     7
100
AcDbLine
 10
9069.412281781479
 20
1968.910627175195
 30
0.0
 11
9069.412281781479
 21
1967.602906516571
 31
0.0
  0
LINE
  5
2A9
330
2
100
AcDbEntity
  8
0
  6
Continuous
 62
     7
100
AcDbLine
 10
9068.317308873682
 20
1967.622019338392
 30
0.0
 11
9079.462734355171
 21
1967.427475213895
 31
0.0
  0
LINE
  5
2AA
330
2
100
AcDbEntity
  8
0
  6
Continuous
 62
     7
100
AcDbLine
 10
9071.474202783388
 20
1970.755695986954
 30
0.0
 11
9071.474202783388
 21
1972.382448946293
 31
0.0
  0
LINE
  5
2AB
330
2
100
AcDbEntity
  8
0
  6
Continuous
 62
     7
100
AcDbLine
 10
9068.317308866056
 20
1968.891514353374
 30
0.0
 11
9076.474202783387
 21
1969.033893466636
 31
0.0
  0
LINE
  5
2AC
330
2
100
AcDbEntity
  8
0
  6
Continuous
 62
     7
100
AcDbLine
 10
9073.974380340821
 20
1970.958239706837
 30
0.0
 11
9073.974380340821
 21
1972.316979493793
 31
0.0
  0
LINE
  5
2AD
330
2
100
AcDbEntity
  8
0
  6
Continuous
 62
     7
100
AcDbLine
 10
9076.474202783387
 20
1970.66842066239
 30
0.0
 11
9075.537354176997
 21
1970.684773416076
 31
0.0
  0
LINE
  5
2AE
330
2
100
AcDbEntity
  8
0
  6
Continuous
 62
     7
100
AcDbLine
 10
9068.317308866056
 20
1970.810799775652
 30
0.0
 11
9074.487257100164
 21
1970.703102927291
 31
0.0
  0
LINE
  5
2AF
330
2
100
AcDbEntity
  8
0
  6
Continuous
 62
     7
100
AcDbLine
 10
9073.974380340821
 20
1970.958239706837
 30
0.0
 11
9075.040337398636
 21
1970.427966411276
 31
0.0
  0
LINE
  5
2B0
330
2
100
AcDbEntity
  8
0
  6
Continuous
 62
     7
100
AcDbLine
 10
9076.474202783387
 20
1970.979873973949
 30
0.0
 11
9075.813325240497
 21
1971.061019534296
 31
0.0
  0
LINE
  5
2B1
330
2
100
AcDbEntity
  8
0
  6
Continuous
 62
     7
100
AcDbLine
 10
9075.415859814983
 20
1970.519133648297
 30
0.0
 11
9075.813325240497
 21
1971.061019534296
 31
0.0
  0
LINE
  5
2B2
330
2
100
AcDbEntity
  8
0
  6
Continuous
 62
     7
100
AcDbLine
 10
9068.317308866056
 20
1972.465115123355
 30
0.0
 11
9073.974380340821
 21
1972.316979493793
 31
0.0
  0
LINE
  5
2B3
330
2
100
AcDbEntity
  8
0
  6
Continuous
 62
     7
100
AcDbLine
 10
9076.474202783387
 20
1967.47964022767
 30
0.0
 11
9076.474202783387
 21
1970.979873973949
 31
0.0
  0
LINE
  5
2B4
330
2
100
AcDbEntity
  8
0
  6
Continuous
 62
     7
100
AcDbLine
 10
9078.51504429478
 20
1973.254465632533
 30
0.0
 11
9068.317308866056
 21
1973.788906301008
 31
0.0
  0
LINE
  5
2B5
330
2
100
AcDbEntity
  8
0
  6
Continuous
 62
     7
100
AcDbLine
 10
9079.462734355171
 20
1972.257806614929
 30
0.0
 11
9079.462734355171
 21
1967.427475213895
 31
0.0
  0
LINE
  5
2B6
330
2
100
AcDbEntity
  8
0
  6
Continuous
 62
     7
100
AcDbLine
 10
9133.759579337597
 20
1972.257913620051
 30
0.0
 11
9133.759579337597
 21
1967.427397334955
 31
0.0
  0
LINE
  5
2B7
330
2
100
AcDbEntity
  8
0
  6
Continuous
 62
     7
100
AcDbLine
 10
9134.660222367399
 20
1967.443117181596
 30
0.0
 11
9134.660222367399
 21
1972.300016827692
 31
0.0
  0
LINE
  5
2B8
330
2
100
AcDbEntity
  8
0
  6
Continuous
 62
     7
100
AcDbLine
 10
9135.798615274763
 20
1967.462988843654
 30
0.0
 11
9135.798615274763
 21
1972.312952130749
 31
0.0
  0
LINE
  5
2B9
330
2
100
AcDbEntity
  8
0
  6
Continuous
 62
     7
100
AcDbLine
 10
9133.759579337597
 20
1967.427397334955
 30
0.0
 11
9144.909466550091
 21
1967.622019338392
 31
0.0
  0
LINE
  5
2BA
330
2
100
AcDbEntity
  8
0
  6
Continuous
 62
     7
100
AcDbLine
 10
9133.986757295746
 20
1972.259505163733
 30
0.0
 11
9133.780001834226
 21
1972.258675866433
 31
0.0
  0
LINE
  5
2BB
330
2
100
AcDbEntity
  8
0
  6
Continuous
 62
     7
100
AcDbLine
 10
9134.508617359463
 20
1972.286576570091
 30
0.0
 11
9134.276993695227
 21
1972.285650445454
 31
0.0
  0
LINE
  5
2BC
330
2
100
AcDbEntity
  8
0
  6
Continuous
 62
     7
100
AcDbLine
 10
9134.65553859978
 20
1972.299600145772
 30
0.0
 11
9134.653849873155
 21
1972.299415030574
 31
0.0
  0
LINE
  5
2BD
330
2
100
AcDbEntity
  8
0
  6
Continuous
 62
     7
100
AcDbLine
 10
9134.653849873155
 20
1972.299415030574
 30
0.0
 11
9134.650488594621
 21
1972.299180387912
 31
0.0
  0
LINE
  5
2BE
330
2
100
AcDbEntity
  8
0
  6
Continuous
 62
     7
100
AcDbLine
 10
9135.798615274763
 20
1972.312952272994
 30
0.0
 11
9144.909466524712
 21
1972.790425750354
 31
0.0
  0
LINE
  5
2BF
330
2
100
AcDbEntity
  8
0
  6
Continuous
 62
     7
100
AcDbLine
 10
9133.780001834226
 20
1972.258675866433
 30
0.0
 11
9133.759599169907
 21
1972.257846566586
 31
0.0
  0
LINE
  5
2C0
330
2
100
AcDbEntity
  8
0
  6
Continuous
 62
     7
100
AcDbLine
 10
9134.660222357213
 20
1972.299779172594
 30
0.0
 11
9134.65553859978
 21
1972.299600145772
 31
0.0
  0
LINE
  5
2C1
330
2
100
AcDbEntity
  8
0
  6
Continuous
 62
     7
100
AcDbLine
 10
9134.005737872461
 20
1972.262815731156
 30
0.0
 11
9133.992665577055
 21
1972.262385892027
 31
0.0
  0
LINE
  5
2C2
330
2
100
AcDbEntity
  8
0
  6
Continuous
 62
     7
100
AcDbLine
 10
9134.650488594621
 20
1972.299180387912
 30
0.0
 11
9134.647203213871
 21
1972.298749758847
 31
0.0
  0
LINE
  5
2C3
330
2
100
AcDbEntity
  8
0
  6
Continuous
 62
     7
100
AcDbLine
 10
9133.992665577055
 20
1972.262385892027
 30
0.0
 11
9133.991282074584
 21
1972.262022834591
 31
0.0
  0
LINE
  5
2C4
330
2
100
AcDbEntity
  8
0
  6
Continuous
 62
     7
100
AcDbLine
 10
9144.909466359605
 20
1973.788906288311
 30
0.0
 11
9134.707242293677
 21
1973.254230382815
 31
0.0
  0
LINE
  5
2C5
330
2
100
AcDbEntity
  8
0
  6
Continuous
 62
     7
100
AcDbLine
 10
9144.909466557717
 20
1967.622019338392
 30
0.0
 11
9144.909466557717
 21
1973.788906359434
 31
0.0
  0
ARC
  5
2C6
330
2
100
AcDbEntity
  8
0
  6
Continuous
 62
     7
100
AcDbCircle
 10
9107.541267227718
 20
5546.82269298267
 30
0.0
 40
3573.56846260748
100
AcDbArc
 50
269.7062943599165
 51
270.000108596557
  0
ARC
  5
2C7
330
2
100
AcDbEntity
  8
0
  6
Continuous
 62
     7
100
AcDbCircle
 10
9107.576656808976
 20
5538.297274846845
 30
0.0
 40
3565.043044578339
100
AcDbArc
 50
269.9995400906344
 51
270.2940575982063
  0
ARC
  5
2C8
330
2
100
AcDbEntity
  8
0
  6
Continuous
 62
     7
100
AcDbCircle
 10
9114.40882783347
 20
2941.307455524715
 30
0.0
 40
969.04862408074
100
AcDbArc
 50
270.1643010933289
 51
270.3282044837871
  0
ARC
  5
2C9
330
2
100
AcDbEntity
  8
0
  6
Continuous
 62
     7
100
AcDbCircle
 10
9126.055376435152
 20
1972.309115242308
 30
0.0
 40
1.002286044699999
100
AcDbArc
 50
0.2193445173991159
 51
89.79579011736044
  0
ARC
  5
2CA
330
2
100
AcDbEntity
  8
0
  6
Continuous
 62
     7
100
AcDbCircle
 10
9089.04070443976
 20
1972.309115862073
 30
0.0
 40
1.002285983739999
100
AcDbArc
 50
90.21956028673818
 51
179.79156536939
  0
ARC
  5
2CB
330
2
100
AcDbEntity
  8
0
  6
Continuous
 62
     7
100
AcDbCircle
 10
9126.568360567924
 20
1972.79075643549
 30
0.0
 40
0.9981501093599998
100
AcDbArc
 50
359.9743538496873
 51
90.03490083513822
  0
ARC
  5
2CC
330
2
100
AcDbEntity
  8
0
  6
Continuous
 62
     7
100
AcDbCircle
 10
9088.527713387987
 20
1972.790763438272
 30
0.0
 40
0.9981430151399999
100
AcDbArc
 50
89.97533388984292
 51
180.0365652022008
  0
ARC
  5
2CD
330
2
100
AcDbEntity
  8
0
  6
Continuous
 62
     7
100
AcDbCircle
 10
9107.548040599986
 20
1766.906464714928
 30
0.0
 40
188.86795061742
100
AcDbArc
 50
84.40232636928989
 51
95.59773825842119
  0
ARC
  5
2CE
330
2
100
AcDbEntity
  8
0
  6
Continuous
 62
     7
100
AcDbCircle
 10
9125.853217403333
 20
1953.673507342151
 30
0.0
 40
1.206000001
100
AcDbArc
 50
2.940766617310563
 51
84.41009481090146
  0
ARC
  5
2CF
330
2
100
AcDbEntity
  8
0
  6
Continuous
 62
     7
100
AcDbCircle
 10
9089.24286379664
 20
1953.673507342151
 30
0.0
 40
1.206000001
100
AcDbArc
 50
95.60002619655287
 51
177.0595137603961
  0
ARC
  5
2D0
330
2
100
AcDbEntity
  8
0
  6
Continuous
 62
     7
100
AcDbCircle
 10
9108.827401775098
 20
1951.281422029817
 30
0.0
 40
0.9999999989799999
100
AcDbArc
 50
270.0006836922957
 51
352.000685181788
  0
ARC
  5
2D1
330
2
100
AcDbEntity
  8
0
  6
Continuous
 62
     7
100
AcDbCircle
 10
9106.268679424934
 20
1951.281422029817
 30
0.0
 40
0.9999999989799999
100
AcDbArc
 50
187.9993092830978
 51
270.0
  0
ARC
  5
2D2
330
2
100
AcDbEntity
  8
0
  6
Continuous
 62
     7
100
AcDbCircle
 10
9107.547160187724
 20
2170.584974646117
 30
0.0
 40
188.87966447004
100
AcDbArc
 50
274.5042559804435
 51
275.1044642111362
  0
ARC
  5
2D3
330
2
100
AcDbEntity
  8
0
  6
Continuous
 62
     7
100
AcDbCircle
 10
9107.547841024603
 20
2170.579535467252
 30
0.0
 40
188.8741971530599
100
AcDbArc
 50
271.6193742705556
 51
272.8105102932021
  0
ARC
  5
2D4
330
2
100
AcDbEntity
  8
0
  6
Continuous
 62
     7
100
AcDbCircle
 10
9107.548040599986
 20
2170.573290531807
 30
0.0
 40
188.86795061742
100
AcDbArc
 50
264.471336978898
 51
269.9967946280738
  0
ARC
  5
2D5
330
2
100
AcDbEntity
  8
0
  6
Continuous
 62
     7
100
AcDbCircle
 10
9107.548040599986
 20
2170.573290531807
 30
0.0
 40
188.86795061742
100
AcDbArc
 50
274.5042680294956
 51
275.5673188784253
  0
ARC
  5
2D6
330
2
100
AcDbEntity
  8
0
  6
Continuous
 62
     7
100
AcDbCircle
 10
9107.548040599986
 20
2170.573290531807
 30
0.0
 40
188.86795061742
100
AcDbArc
 50
272.8468296916002
 51
274.2420612175408
  0
ARC
  5
2D7
330
2
100
AcDbEntity
  8
0
  6
Continuous
 62
     7
100
AcDbCircle
 10
9107.548040599986
 20
2170.573290531807
 30
0.0
 40
188.86795061742
100
AcDbArc
 50
270.0013411632601
 51
272.8383665872723
  0
ARC
  5
2D8
330
2
100
AcDbEntity
  8
0
  6
Continuous
 62
     7
100
AcDbCircle
 10
9107.548324028424
 20
2170.564389525993
 30
0.0
 40
188.85904361212
100
AcDbArc
 50
270.8425451869035
 51
271.619357647933
  0
ARC
  5
2D9
330
2
100
AcDbEntity
  8
0
  6
Continuous
 62
     7
100
AcDbCircle
 10
9107.548682696755
 20
2170.560664895398
 30
0.0
 40
188.85530807476
100
AcDbArc
 50
272.9256269745547
 51
273.7693181669059
  0
ARC
  5
2DA
330
2
100
AcDbEntity
  8
0
  6
Continuous
 62
     7
100
AcDbCircle
 10
9107.550459081323
 20
2170.547999891518
 30
0.0
 40
188.84254284248
100
AcDbArc
 50
275.1044653962357
 51
275.5570497212855
  0
ARC
  5
2DB
330
2
100
AcDbEntity
  8
0
  6
Continuous
 62
     7
100
AcDbCircle
 10
9107.548050572034
 20
2170.520842747457
 30
0.0
 40
187.86783987698
100
AcDbArc
 50
264.4022925931841
 51
275.5977361612567
  0
ARC
  5
2DC
330
2
100
AcDbEntity
  8
0
  6
Continuous
 62
     7
100
AcDbCircle
 10
9089.24286379664
 20
1983.806247904591
 30
0.0
 40
1.206000001
100
AcDbArc
 50
182.9404862396039
 51
264.3999738034471
  0
ARC
  5
2DD
330
2
100
AcDbEntity
  8
0
  6
Continuous
 62
     7
100
AcDbCircle
 10
9125.853217403333
 20
1983.806247904591
 30
0.0
 40
1.206000001
100
AcDbArc
 50
275.5899051890986
 51
356.8249073130158
  0
ARC
  5
2DE
330
2
100
AcDbEntity
  8
0
  6
Continuous
 62
     7
100
AcDbCircle
 10
9125.853213664452
 20
1983.753913429631
 30
0.0
 40
0.20600337006
100
AcDbArc
 50
275.6099408878996
 51
357.0482609822079
  0
ARC
  5
2DF
330
2
100
AcDbEntity
  8
0
  6
Continuous
 62
     7
100
AcDbCircle
 10
9078.462718664104
 20
1972.255822176434
 30
0.0
 40
1.00001345336
100
AcDbArc
 50
0.1400457489033044
 51
87.00063250165198
  0
ARC
  5
2E0
330
2
100
AcDbEntity
  8
0
  6
Continuous
 62
     7
100
AcDbCircle
 10
9075.173955866473
 20
1970.696566679253
 30
0.0
 40
0.29999999944
100
AcDbArc
 50
243.5513931028783
 51
323.7404940073847
  0
ARC
  5
2E1
330
2
100
AcDbEntity
  8
0
  6
Continuous
 62
     7
100
AcDbCircle
 10
9133.689498563342
 20
1977.674449274134
 30
0.0
 40
5.420865696219999
100
AcDbArc
 50
273.3443866301241
 51
275.0624784493545
  0
ARC
  5
2E2
330
2
100
AcDbEntity
  8
0
  6
Continuous
 62
     7
100
AcDbCircle
 10
9134.759581630193
 20
1972.255601120232
 30
0.0
 40
0.9999999964399998
100
AcDbArc
 50
93.00019416150183
 51
179.8783636327935
  0
LINE
  5
2E3
330
2
100
AcDbEntity
  8
0
  6
Continuous
 62
     7
100
AcDbLine
 10
9087.529570616711
 20
1967.622019338392
 30
0.0
 11
9088.038450020556
 21
1967.462989455795
 31
0.0
  0
SPLINE
  5
2E4
330
2
100
AcDbEntity
  8
0
  6
Continuous
 62
     7
100
AcDbSpline
210
0.0
220
0.0
230
1.0
 70
     8
 71
     3
 72
    17
 73
    13
 74
     0
 42
0.0000000001
 43
0.0000000001
 40
0.0
 40
0.0
 40
0.0
 40
0.0
 40
0.1934011658
 40
0.3774360753
 40
0.5460742706000001
 40
0.6941527011000001
 40
0.8169554923000001
 40
0.9106292534999999
 40
0.9456002755
 40
0.9722615145999998
 40
0.9904248994999999
 40
1.0
 40
1.0
 40
1.0
 40
1.0
 10
9125.970367252843
 20
1967.443116561829
 30
0.0
 10
9126.040490036148
 20
1967.443236358391
 30
0.0
 10
9126.177339290052
 20
1967.443680269112
 30
0.0
 10
9126.375329935417
 20
1967.444972001351
 30
0.0
 10
9126.556881009966
 20
1967.446843541933
 30
0.0
 10
9126.716226906678
 20
1967.449205261873
 30
0.0
 10
9126.848369626927
 20
1967.452016348456
 30
0.0
 10
9126.939518090761
 20
1967.454715926491
 30
0.0
 10
9126.99574944137
 20
1967.457276388733
 30
0.0
 10
9127.024677656317
 20
1967.458889900874
 30
0.0
 10
9127.04423840203
 20
1967.460771840211
 30
0.0
 10
9127.054343182464
 20
1967.461872262189
 30
0.0
 10
9127.057630323413
 20
1967.46298917893
 30
0.0
  0
LINE
  5
2E5
330
2
100
AcDbEntity
  8
0
  6
Continuous
 62
     7
100
AcDbLine
 10
9127.057630323413
 20
1967.46298917893
 30
0.0
 11
9127.566510565538
 21
1967.622019338392
 31
0.0
  0
SPLINE
  5
2E6
330
2
100
AcDbEntity
  8
0
  6
Continuous
 62
     7
100
AcDbSpline
210
0.0
220
0.0
230
1.0
 70
     8
 71
     3
 72
    17
 73
    13
 74
     0
 42
0.0000000001
 43
0.0000000001
 40
0.0
 40
0.0
 40
0.0
 40
0.0
 40
0.1934521997
 40
0.3775066203
 40
0.5461436741
 40
0.6942094568000002
 40
0.8169920098
 40
0.9106450498
 40
0.9456079216999999
 40
0.9722639026000001
 40
0.9904247764
 40
1.0
 40
1.0
 40
1.0
 40
1.0
 10
9089.124659532172
 20
1967.443120453114
 30
0.0
 10
9089.054586182365
 20
1967.443240381755
 30
0.0
 10
9088.917843920922
 20
1967.443684957958
 30
0.0
 10
9088.720019917282
 20
1967.444978099891
 30
0.0
 10
9088.538642639688
 20
1967.446850511689
 30
0.0
 10
9088.379463438135
 20
1967.449212152897
 30
0.0
 10
9088.247468162373
 20
1967.452022502868
 30
0.0
 10
9088.156425832378
 20
1967.454721057293
 30
0.0
 10
9088.100261354894
 20
1967.457280135233
 30
0.0
 10
9088.071367003273
 20
1967.458892859969
 30
0.0
 10
9088.051827977079
 20
1967.460773399776
 30
0.0
 10
9088.041733989131
 20
1967.46187351441
 30
0.0
 10
9088.038450020556
 20
1967.462989455795
 30
0.0
  0
SPLINE
  5
2E7
102
{ACAD_REACTORS
330
420
102
}
330
2
100
AcDbEntity
  8
0
  6
Continuous
 62
     7
100
AcDbSpline
210
0.0
220
0.0
230
1.0
 70
     8
 71
     3
 72
     9
 73
     5
 74
     0
 42
0.0000000001
 43
0.0000000001
 40
0.0
 40
0.0
 40
0.0
 40
0.0
 40
0.2494767369
 40
1.0
 40
1.0
 40
1.0
 40
1.0
 10
9125.970367252843
 20
1967.443116561829
 30
0.0
 10
9124.438477522652
 20
1967.440495853334
 30
0.0
 10
9118.298064192627
 20
1967.43131721027
 30
0.0
 10
9112.157643024158
 20
1967.427388376374
 30
0.0
 10
9107.549114882875
 20
1967.427387919175
 30
0.0
  0
SPLINE
  5
2E8
330
2
100
AcDbEntity
  8
0
  6
Continuous
 62
     7
100
AcDbSpline
210
0.0
220
0.0
230
1.0
 70
     8
 71
     3
 72
     9
 73
     5
 74
     0
 42
0.0000000001
 43
0.0000000001
 40
0.0
 40
0.0
 40
0.0
 40
0.0
 40
0.2503720051
 40
1.0
 40
1.0
 40
1.0
 40
1.0
 10
9107.549114882875
 20
1967.427387919175
 30
0.0
 10
9106.011458273121
 20
1967.427387764233
 30
0.0
 10
9099.869970576419
 20
1967.428713387693
 30
0.0
 10
9093.728483961823
 20
1967.435244281412
 30
0.0
 10
9089.124659532172
 20
1967.443120453114
 30
0.0
  0
SPLINE
  5
2E9
330
2
100
AcDbEntity
  8
0
  6
Continuous
 62
     7
100
AcDbSpline
210
0.0
220
0.0
230
1.0
 70
     8
 71
     3
 72
     9
 73
     5
 74
     0
 42
0.0000000001
 43
0.0000000001
 40
0.0
 40
0.0
 40
0.0
 40
0.0
 40
0.245283184
 40
1.0
 40
1.0
 40
1.0
 40
1.0
 10
9127.057629213451
 20
1972.312951030937
 30
0.0
 10
9127.097572598129
 20
1972.353694238751
 30
0.0
 10
9127.265383123612
 20
1972.514879555194
 30
0.0
 10
9127.44237174852
 20
1972.666290961795
 30
0.0
 10
9127.566510631544
 20
1972.790430495071
 30
0.0
  0
SPLINE
  5
2EA
330
2
100
AcDbEntity
  8
0
  6
Continuous
 62
     7
100
AcDbSpline
210
0.0
220
0.0
230
1.0
 70
     8
 71
     3
 72
     9
 73
     5
 74
     0
 42
0.0000000001
 43
0.0000000001
 40
0.0
 40
0.0
 40
0.0
 40
0.0
 40
0.2474907645
 40
1.0
 40
1.0
 40
1.0
 40
1.0
 10
9087.529570423665
 20
1972.790294439976
 30
0.0
 10
9087.570330331962
 20
1972.749636124033
 30
0.0
 10
9087.73930914821
 20
1972.589728493629
 30
0.0
 10
9087.916075459668
 20
1972.437926478211
 30
0.0
 10
9088.038451666523
 20
1972.312761628207
 30
0.0
  0
SPLINE
  5
2EB
330
2
100
AcDbEntity
  8
0
  6
Continuous
 62
     7
100
AcDbSpline
210
0.0
220
0.0
230
1.0
 70
     8
 71
     3
 72
     9
 73
     5
 74
     0
 42
0.0000000001
 43
0.0000000001
 40
0.0
 40
0.0
 40
0.0
 40
0.0
 40
0.2472496174
 40
1.0
 40
1.0
 40
1.0
 40
1.0
 10
9126.567879055032
 20
1973.788906262911
 30
0.0
 10
9126.527207007852
 20
1973.748234177634
 30
0.0
 10
9126.3583450037
 20
1973.588174873672
 30
0.0
 10
9126.181534506397
 20
1973.436418115969
 30
0.0
 10
9126.058942219229
 20
1973.311370718111
 30
0.0
  0
SPLINE
  5
2EC
330
2
100
AcDbEntity
  8
0
  6
Continuous
 62
     7
100
AcDbSpline
210
0.0
220
0.0
230
1.0
 70
     8
 71
     3
 72
    14
 73
    10
 74
     0
 42
0.0000000001
 43
0.0000000001
 40
0.0
 40
0.0
 40
0.0
 40
0.0
 40
0.0291956956
 40
0.091237071
 40
0.1850348138
 40
0.3075916255
 40
0.455256891
 40
0.6235533553
 40
1.0
 40
1.0
 40
1.0
 40
1.0
 10
9126.058943725441
 20
1973.311370713032
 30
0.0
 10
9126.057680667278
 20
1973.310070553074
 30
0.0
 10
9126.051573133112
 20
1973.309154603674
 30
0.0
 10
9126.040649141783
 20
1973.307174086934
 30
0.0
 10
9126.023204807848
 20
1973.305794783111
 30
0.0
 10
9126.000738688208
 20
1973.304291989574
 30
0.0
 10
9125.973506370284
 20
1973.303102449157
 30
0.0
 10
9125.930550388135
 20
1973.301763607538
 30
0.0
 10
9125.896723585075
 20
1973.301302953135
 30
0.0
 10
9125.873351642965
 20
1973.301182188835
 30
0.0
  0
LINE
  5
2ED
330
2
100
AcDbEntity
  8
0
  6
Continuous
 62
     7
100
AcDbLine
 10
9089.222769335977
 20
1973.301181983093
 30
0.0
 11
9089.093983350194
 21
1973.304478953891
 31
0.0
  0
LINE
  5
2EE
330
2
100
AcDbEntity
  8
0
  6
Continuous
 62
     7
100
AcDbLine
 10
9089.093983350194
 20
1973.304478953891
 30
0.0
 11
9089.036863111383
 21
1973.311373870252
 31
0.0
  0
SPLINE
  5
2EF
330
2
100
AcDbEntity
  8
0
  6
Continuous
 62
     7
100
AcDbSpline
210
0.0
220
0.0
230
1.0
 70
     8
 71
     3
 72
    16
 73
    12
 74
     0
 42
0.0000000001
 43
0.0000000001
 40
0.0
 40
0.0
 40
0.0
 40
0.0
 40
0.0130860186
 40
0.0333821294
 40
0.0978480999
 40
0.1935458573
 40
0.3176044878
 40
0.4658142696
 40
0.6329297750000001
 40
0.8132077831
 40
1.0
 40
1.0
 40
1.0
 40
1.0
 10
9089.222769366449
 20
1973.301181983093
 30
0.0
 10
9089.218881914204
 20
1973.299114517075
 30
0.0
 10
9089.211497910687
 20
1973.289918947455
 30
0.0
 10
9089.197953528362
 20
1973.260089804673
 30
0.0
 10
9089.183390499284
 20
1973.200571871894
 30
0.0
 10
9089.167868325649
 20
1973.106388262953
 30
0.0
 10
9089.154027062951
 20
1972.983226469652
 30
0.0
 10
9089.142296459048
 20
1972.835868892893
 30
0.0
 10
9089.133276685391
 20
1972.669332225712
 30
0.0
 10
9089.127321027993
 20
1972.489686605833
 30
0.0
 10
9089.12555464091
 20
1972.36618248657
 30
0.0
 10
9089.12522993998
 20
1972.303333610492
 30
0.0
  0
LINE
  5
2F0
330
2
100
AcDbEntity
  8
0
  6
Continuous
 62
     7
100
AcDbLine
 10
9089.125178271309
 20
1972.303337577978
 30
0.0
 11
9088.370481949841
 21
1972.305820509253
 31
0.0
  0
LINE
  5
2F1
330
2
100
AcDbEntity
  8
0
  6
Continuous
 62
     7
100
AcDbLine
 10
9088.370481949841
 20
1972.305820509253
 30
0.0
 11
9088.038451666523
 21
1972.312761310713
 31
0.0
  0
LINE
  5
2F2
330
2
100
AcDbEntity
  8
0
  6
Continuous
 62
     7
100
AcDbLine
 10
9099.850268505122
 20
1972.263456016888
 30
0.0
 11
9096.952404849451
 21
1972.281242526907
 31
0.0
  0
LINE
  5
2F3
330
2
100
AcDbEntity
  8
0
  6
Continuous
 62
     7
100
AcDbLine
 10
9091.882614016288
 20
1972.281380974688
 30
0.0
 11
9089.125178271309
 21
1972.303333927994
 31
0.0
  0
SPLINE
  5
2F4
330
2
100
AcDbEntity
  8
0
  6
Continuous
 62
     7
100
AcDbSpline
210
0.0
220
0.0
230
1.0
 70
     8
 71
     3
 72
    16
 73
    12
 74
     0
 42
0.0000000001
 43
0.0000000001
 40
0.0
 40
0.0
 40
0.0
 40
0.0
 40
0.1866721546
 40
0.3669037968
 40
0.5340255503
 40
0.6822739116
 40
0.8063836082999999
 40
0.9021274641999999
 40
0.9666209396999999
 40
0.9869202743999998
 40
1.0
 40
1.0
 40
1.0
 40
1.0
 10
9125.970863822892
 20
1972.300728299473
 30
0.0
 10
9125.9705545169
 20
1972.363698899971
 30
0.0
 10
9125.968813636445
 20
1972.487465952406
 30
0.0
 10
9125.962884179187
 20
1972.667522361415
 30
0.0
 10
9125.953877428068
 20
1972.834490142792
 30
0.0
 10
9125.942147482028
 20
1972.982262714911
 30
0.0
 10
9125.928295630105
 20
1973.105791360409
 30
0.0
 10
9125.912755427519
 20
1973.200263424449
 30
0.0
 10
9125.898171458731
 20
1973.259966807709
 30
0.0
 10
9125.884602766005
 20
1973.289885132428
 30
0.0
 10
9125.877206374907
 20
1973.299109543754
 30
0.0
 10
9125.873311104589
 20
1973.301181985633
 30
0.0
  0
LINE
  5
2F5
330
2
100
AcDbEntity
  8
0
  6
Continuous
 62
     7
100
AcDbLine
 10
9127.057629231265
 20
1972.312952130749
 30
0.0
 11
9126.725501249328
 21
1972.305845538416
 31
0.0
  0
LINE
  5
2F6
330
2
100
AcDbEntity
  8
0
  6
Continuous
 62
     7
100
AcDbLine
 10
9126.725501249328
 20
1972.305845538416
 30
0.0
 11
9125.970690909818
 21
1972.300016827692
 31
0.0
  0
SPLINE
  5
2F7
330
2
100
AcDbEntity
  8
0
  6
Continuous
 62
     7
100
AcDbSpline
210
0.0
220
0.0
230
1.0
 70
     8
 71
     3
 72
     9
 73
     5
 74
     0
 42
0.0000000001
 43
0.0000000001
 40
0.0
 40
0.0
 40
0.0
 40
0.0
 40
0.2455101252
 40
1.0
 40
1.0
 40
1.0
 40
1.0
 10
9089.036822331678
 20
1973.311373712771
 30
0.0
 10
9088.99689599041
 20
1973.352212005491
 30
0.0
 10
9088.829241070447
 20
1973.513584982211
 30
0.0
 10
9088.652205077075
 20
1973.664951722916
 30
0.0
 10
9088.527942188681
 20
1973.788906443253
 30
0.0
  0
LINE
  5
2F8
330
2
100
AcDbEntity
  8
0
  6
Continuous
 62
     7
100
AcDbLine
 10
9116.80879975435
 20
1972.259505163733
 30
0.0
 11
9116.900513817776
 21
1972.262022834591
 31
0.0
  0
LINE
  5
2F9
330
2
100
AcDbEntity
  8
0
  6
Continuous
 62
     7
100
AcDbLine
 10
9119.959749154764
 20
1972.274730015175
 30
0.0
 11
9121.518661947501
 21
1972.285650445454
 31
0.0
  0
LINE
  5
2FA
330
2
100
AcDbEntity
  8
0
  6
Continuous
 62
     7
100
AcDbLine
 10
9124.352132178453
 20
1972.286576570091
 30
0.0
 11
9125.837368854892
 21
1972.298749758847
 31
0.0
  0
SPLINE
  5
2FB
330
2
100
AcDbEntity
  8
0
  6
Continuous
 62
     7
100
AcDbSpline
210
0.0
220
0.0
230
1.0
 70
     8
 71
     3
 72
    10
 73
     6
 74
     0
 42
0.0000000001
 43
0.0000000001
 40
0.0
 40
0.0
 40
0.0
 40
0.0
 40
0.4783527686
 40
0.9567055381999999
 40
1.0
 40
1.0
 40
1.0
 40
1.0
 10
9087.529570642118
 20
1944.624528122396
 30
0.0
 10
9087.605719077563
 20
1946.077526834371
 30
0.0
 10
9087.77377212221
 20
1948.982669952194
 30
0.0
 10
9087.949430188471
 20
1952.019281537068
 30
0.0
 10
9088.031693061772
 20
1953.603829533837
 30
0.0
 10
9088.038450150127
 20
1953.735343974891
 30
0.0
  0
SPLINE
  5
2FC
330
2
100
AcDbEntity
  8
0
  6
Continuous
 62
     7
100
AcDbSpline
210
0.0
220
0.0
230
1.0
 70
     8
 71
     3
 72
    10
 73
     6
 74
     0
 42
0.0000000001
 43
0.0000000001
 40
0.0
 40
0.0
 40
0.0
 40
0.0
 40
0.0432961332
 40
0.5216480670000001
 40
1.0
 40
1.0
 40
1.0
 40
1.0
 10
9127.057630232
 20
1953.735359895618
 30
0.0
 10
9127.064387587061
 20
1953.603840148491
 30
0.0
 10
9127.146650704222
 20
1952.019286840594
 30
0.0
 10
9127.322309077822
 20
1948.982669952194
 30
0.0
 10
9127.49036212241
 20
1946.077526831832
 30
0.0
 10
9127.566510557912
 20
1944.62452811985
 30
0.0
  0
SPLINE
  5
2FD
330
2
100
AcDbEntity
  8
0
  6
Continuous
 62
     7
100
AcDbSpline
210
0.0
220
0.0
230
1.0
 70
     8
 71
     3
 72
    10
 73
     6
 74
     0
 42
0.0000000001
 43
0.0000000001
 40
0.0
 40
0.0
 40
0.0
 40
0.0
 40
0.4783512155
 40
0.9567024379999999
 40
1.0
 40
1.0
 40
1.0
 40
1.0
 10
9087.529570644651
 20
1992.855227068467
 30
0.0
 10
9087.605719080094
 20
1991.402228376814
 30
0.0
 10
9087.773772124741
 20
1988.497085274233
 30
0.0
 10
9087.949430757394
 20
1985.460463872252
 30
0.0
 10
9088.031694085383
 20
1983.875906027911
 30
0.0
 10
9088.038451666523
 20
1983.744381744356
 30
0.0
  0
SPLINE
  5
2FE
330
2
100
AcDbEntity
  8
0
  6
Continuous
 62
     7
100
AcDbSpline
210
0.0
220
0.0
230
1.0
 70
     8
 71
     3
 72
    10
 73
     6
 74
     0
 42
0.0000000001
 43
0.0000000001
 40
0.0
 40
0.0
 40
0.0
 40
0.0
 40
0.0432981806
 40
0.5216490921000001
 40
1.0
 40
1.0
 40
1.0
 40
1.0
 10
9127.057629231265
 20
1983.744375851551
 30
0.0
 10
9127.064386911415
 20
1983.875902098531
 30
0.0
 10
9127.14665032826
 20
1985.460461906288
 30
0.0
 10
9127.322309077822
 20
1988.49708528693
 30
0.0
 10
9127.490362119877
 20
1991.402228397135
 30
0.0
 10
9127.56651055538
 20
1992.855227101492
 30
0.0
  0
SPLINE
  5
2FF
330
2
100
AcDbEntity
  8
0
  6
Continuous
 62
     7
100
AcDbSpline
210
0.0
220
0.0
230
1.0
 70
     8
 71
     3
 72
    18
 73
    14
 74
     0
 42
0.0000000001
 43
0.0000000001
 40
0.0
 40
0.0
 40
0.0
 40
0.0
 40
0.0062126077
 40
0.0197144832
 40
0.0419777881
 40
0.0737553163
 40
0.1154898778
 40
0.1668162707
 40
0.295935263
 40
0.4551703052000001
 40
0.6333970101
 40
0.8185487658999999
 40
1.0
 40
1.0
 40
1.0
 40
1.0
 10
9088.03845117627
 20
1983.744391287131
 30
0.0
 10
9088.038558338872
 20
1983.74231914751
 30
0.0
 10
9088.045379138014
 20
1983.738051642707
 30
0.0
 10
9088.058147339603
 20
1983.735058168895
 30
0.0
 10
9088.080906392383
 20
1983.731240444751
 30
0.0
 10
9088.112558432202
 20
1983.728369111908
 30
0.0
 10
9088.154264424449
 20
1983.725831334414
 30
0.0
 10
9088.228386077085
 20
1983.723172823091
 30
0.0
 10
9088.3418691953
 20
1983.722008304212
 30
0.0
 10
9088.497685962693
 20
1983.723641559772
 30
0.0
 10
9088.672186416271
 20
1983.727922059217
 30
0.0
 10
9088.85403136122
 20
1983.734574822134
 30
0.0
 10
9088.97634133506
 20
1983.740253520453
 30
0.0
 10
9089.036863720991
 20
1983.743353727608
 30
0.0
  0
LINE
  5
300
330
2
100
AcDbEntity
  8
0
  6
Continuous
 62
     7
100
AcDbLine
 10
9089.222769366449
 20
1983.548892785569
 30
0.0
 11
9089.12522993998
 21
1982.605995324149
 31
0.0
  0
LINE
  5
301
330
2
100
AcDbEntity
  8
0
  6
Continuous
 62
     7
100
AcDbLine
 10
9125.970863822892
 20
1982.606003408968
 30
0.0
 11
9125.873311104589
 21
1983.548892805891
 31
0.0
  0
SPLINE
  5
302
330
2
100
AcDbEntity
  8
0
  6
Continuous
 62
     7
100
AcDbSpline
210
0.0
220
0.0
230
1.0
 70
     8
 71
     3
 72
    13
 73
     9
 74
     0
 42
0.0000000001
 43
0.0000000001
 40
0.0
 40
0.0
 40
0.0
 40
0.0
 40
0.3130803537
 40
0.6171160156000001
 40
0.7488350344
 40
0.8585332265000001
 40
0.9430310797
 40
1.0
 40
1.0
 40
1.0
 40
1.0
 10
9126.058948635257
 20
1983.743359996333
 30
0.0
 10
9126.159486069447
 20
1983.738208642651
 30
0.0
 10
9126.357736493361
 20
1983.729584715271
 30
0.0
 10
9126.598461800591
 20
1983.723298334655
 30
0.0
 10
9126.773848005587
 20
1983.72216516445
 30
0.0
 10
9126.878653881796
 20
1983.723413373795
 30
0.0
 10
9126.959346801438
 20
1983.726484470011
 30
0.0
 10
9127.004754028359
 20
1983.730032207393
 30
0.0
 10
9127.022888112014
 20
1983.732621811046
 30
0.0
  0
SPLINE
  5
303
330
2
100
AcDbEntity
  8
0
  6
Continuous
 62
     7
100
AcDbSpline
210
0.0
220
0.0
230
1.0
 70
     8
 71
     3
 72
    10
 73
     6
 74
     0
 42
0.0000000001
 43
0.0000000001
 40
0.0
 40
0.0
 40
0.0
 40
0.0
 40
0.7090819195
 40
0.8970073269
 40
1.0
 40
1.0
 40
1.0
 40
1.0
 10
9127.022888112014
 20
1983.732621811046
 30
0.0
 10
9127.031704444368
 20
1983.733880810316
 30
0.0
 10
9127.043033890849
 20
1983.735845642557
 30
0.0
 10
9127.054618597192
 20
1983.740085827114
 30
0.0
 10
9127.057557582929
 20
1983.743082293054
 30
0.0
 10
9127.057629106786
 20
1983.744373857655
 30
0.0
  0
SPLINE
  5
304
330
2
100
AcDbEntity
  8
0
  6
Continuous
 62
     7
100
AcDbSpline
210
0.0
220
0.0
230
1.0
 70
     8
 71
     3
 72
     9
 73
     5
 74
     0
 42
0.0000000001
 43
0.0000000001
 40
0.0
 40
0.0
 40
0.0
 40
0.0
 40
0.2518769427
 40
1.0
 40
1.0
 40
1.0
 40
1.0
 10
9089.222769335977
 20
1983.548892793194
 30
0.0
 10
9089.210656741448
 20
1983.550087967335
 30
0.0
 10
9089.16316412877
 20
1983.559611161392
 30
0.0
 10
9089.118953356157
 20
1983.585660319353
 30
0.0
 10
9089.093983350194
 20
1983.611802748652
 30
0.0
  0
SPLINE
  5
305
330
2
100
AcDbEntity
  8
0
  6
Continuous
 62
     7
100
AcDbSpline
210
0.0
220
0.0
230
1.0
 70
     8
 71
     3
 72
     9
 73
     5
 74
     0
 42
0.0000000001
 43
0.0000000001
 40
0.0
 40
0.0
 40
0.0
 40
0.0
 40
0.2519660787
 40
1.0
 40
1.0
 40
1.0
 40
1.0
 10
9089.093983350194
 20
1983.611802748652
 30
0.0
 10
9089.085565663221
 20
1983.620615672356
 30
0.0
 10
9089.05535002389
 20
1983.658504694875
 30
0.0
 10
9089.038695010199
 20
1983.707231107452
 30
0.0
 10
9089.036863111383
 20
1983.743365584327
 30
0.0
  0
SPLINE
  5
306
330
2
100
AcDbEntity
  8
0
  6
Continuous
 62
     7
100
AcDbSpline
210
0.0
220
0.0
230
1.0
 70
     8
 71
     3
 72
     9
 73
     5
 74
     0
 42
0.0000000001
 43
0.0000000001
 40
0.0
 40
0.0
 40
0.0
 40
0.0
 40
0.2501605022
 40
1.0
 40
1.0
 40
1.0
 40
1.0
 10
9089.036822331678
 20
1983.743363504072
 30
0.0
 10
9088.997882043784
 20
1984.503360254333
 30
0.0
 10
9088.83274232074
 20
1987.540906884329
 30
0.0
 10
9088.64761884288
 20
1990.577337593277
 30
0.0
 10
9088.527942188681
 20
1992.855224035716
 30
0.0
  0
SPLINE
  5
307
330
2
100
AcDbEntity
  8
0
  6
Continuous
 62
     7
100
AcDbSpline
210
0.0
220
0.0
230
1.0
 70
     8
 71
     3
 72
     9
 73
     5
 74
     0
 42
0.0000000001
 43
0.0000000001
 40
0.0
 40
0.0
 40
0.0
 40
0.0
 40
0.2498379232
 40
1.0
 40
1.0
 40
1.0
 40
1.0
 10
9126.567879055032
 20
1992.855226420768
 30
0.0
 10
9126.528102858271
 20
1992.096250638751
 30
0.0
 10
9126.360275086206
 20
1989.058837386692
 30
0.0
 10
9126.17603551566
 20
1986.022323584191
 30
0.0
 10
9126.058942219229
 20
1983.743305409189
 30
0.0
  0
LINE
  5
308
330
2
100
AcDbEntity
  8
0
  6
Continuous
 62
     7
100
AcDbLine
 10
9134.508617359463
 20
1972.286576570091
 30
0.0
 11
9134.647203213871
 21
1972.298749758847
 31
0.0
  0
SPLINE
  5
309
330
2
100
AcDbEntity
  8
0
  6
Continuous
 62
     7
100
AcDbSpline
210
0.0
220
0.0
230
1.0
 70
     8
 71
     3
 72
    11
 73
     7
 74
     0
 42
0.0000000001
 43
0.0000000001
 40
0.0
 40
0.0
 40
0.0
 40
0.0
 40
0.2505697902
 40
0.5007659235000001
 40
0.7505178444000001
 40
1.0
 40
1.0
 40
1.0
 40
1.0
 10
9134.660242832195
 20
1972.300728299473
 30
0.0
 10
9134.659951341792
 20
1972.426650600333
 30
0.0
 10
9134.707770964205
 20
1972.680988013933
 30
0.0
 10
9134.914905957574
 20
1973.006740918434
 30
0.0
 10
9135.227350135874
 20
1973.232616417918
 30
0.0
 10
9135.477928021822
 20
1973.294619926113
 30
0.0
 10
9135.603132229112
 20
1973.301181985633
 30
0.0
  0
SPLINE
  5
30A
330
2
100
AcDbEntity
  8
0
  6
Continuous
 62
     7
100
AcDbSpline
210
0.0
220
0.0
230
1.0
 70
     8
 71
     3
 72
    18
 73
    14
 74
     0
 42
0.0000000001
 43
0.0000000001
 40
0.0
 40
0.0
 40
0.0
 40
0.0
 40
0.0061437657
 40
0.0196138705
 40
0.0418599546
 40
0.0736286307
 40
0.1153604123
 40
0.1666887096
 40
0.2958222878
 40
0.4550822636
 40
0.6333391112
 40
0.8185212368000001
 40
1.0
 40
1.0
 40
1.0
 40
1.0
 10
9135.797599419531
 20
1973.311373578152
 30
0.0
 10
9135.795550548838
 20
1973.311266131073
 30
0.0
 10
9135.791388095956
 20
1973.304393327948
 30
0.0
 10
9135.788488513195
 20
1973.29168558857
 30
0.0
 10
9135.784789849031
 20
1973.268906754274
 30
0.0
 10
9135.782040761275
 20
1973.237268372031
 30
0.0
 10
9135.77963687225
 20
1973.195558216692
 30
0.0
 10
9135.777181329833
 20
1973.121435636975
 30
0.0
 10
9135.776270338496
 20
1973.007948376013
 30
0.0
 10
9135.778188891958
 20
1972.852129901774
 30
0.0
 10
9135.782740917363
 20
1972.677627438992
 30
0.0
 10
9135.789633804309
 20
1972.495782682032
 30
0.0
 10
9135.795450483
 20
1972.373473696272
 30
0.0
 10
9135.798613283393
 20
1972.312952168853
 30
0.0
  0
LINE
  5
30B
330
2
100
AcDbEntity
  8
0
  6
Continuous
 62
     7
100
AcDbLine
 10
9135.798615274763
 20
1972.312952130749
 30
0.0
 11
9135.027686697274
 21
1972.305845538416
 31
0.0
  0
LINE
  5
30C
330
2
100
AcDbEntity
  8
0
  6
Continuous
 62
     7
100
AcDbLine
 10
9135.027686697274
 20
1972.305845538416
 30
0.0
 11
9134.660222367399
 21
1972.300016827692
 31
0.0
  0
LINE
  5
30D
330
2
100
AcDbEntity
  8
0
  6
Continuous
 62
     7
100
AcDbLine
 10
9134.167846572863
 20
1972.274730015175
 30
0.0
 11
9134.276993695227
 21
1972.285650445454
 31
0.0
  0
LINE
  5
30E
330
2
100
AcDbEntity
  8
0
  6
Continuous
 62
     7
100
AcDbLine
 10
9133.986757295746
 20
1972.259505163733
 30
0.0
 11
9133.991282074584
 21
1972.262022834591
 31
0.0
  0
LINE
  5
30F
330
2
100
AcDbEntity
  8
0
 48
0.05
100
AcDbLine
 10
9145.329545781271
 20
1927.252206529718
 30
0.0
 11
9145.329545781271
 21
1924.992215630757
 31
0.0
  0
LINE
  5
310
330
2
100
AcDbEntity
  8
0
 48
0.05
100
AcDbLine
 10
9145.329545781271
 20
1927.252206529718
 30
0.0
 11
9183.222009987451
 21
1927.252206529718
 31
0.0
  0
LINE
  5
311
330
2
100
AcDbEntity
  8
0
 48
0.05
100
AcDbLine
 10
9146.245505654823
 20
1924.992215630757
 30
0.0
 11
9183.222009987451
 21
1924.992215630757
 31
0.0
  0
TEXT
  5
312
330
2
100
AcDbEntity
  8
hatch
100
AcDbText
 10
9150.849111567049
 20
1925.423321888192
 30
0.0
 40
1.172112222246736
  1
ASL280D40HXXLEDCOcaps
  7
cha1
100
AcDbText
1001
ACAD
1000
MTEXTBEGIN
1070
    73
1070
     1
1070
    44
1040
1.0
1070
    74
1070
     0
1000
MTEXTEND
  0
LINE
  5
313
330
2
100
AcDbEntity
  8
0
 48
0.05
100
AcDbLine
 10
9167.1214706757
 20
1927.252206529718
 30
0.0
 11
9167.1214706757
 21
1924.992215630757
 31
0.0
  0
TEXT
  5
314
330
2
100
AcDbEntity
  8
hatch
100
AcDbText
 10
9145.681504128591
 20
1925.481151418224
 30
0.0
 40
1.172112222246736
  1
TYPE:
  7
cha1
100
AcDbText
1001
ACAD
1000
MTEXTBEGIN
1070
    73
1070
     1
1070
    44
1040
1.0
1070
    74
1070
     0
1000
MTEXTEND
  0
LINE
  5
315
330
2
100
AcDbEntity
  8
0
100
AcDbLine
 10
9059.281974797601
 20
2017.073863084899
 30
0.0
 11
9062.907905116501
 21
2017.073863084899
 31
0.0
1001
AcDbBlockRepETag
1070
     1
1071
        0
1005
0
  0
LINE
  5
316
330
2
100
AcDbEntity
  8
0
100
AcDbLine
 10
9187.210533338353
 20
2016.285384178184
 30
0.0
 11
9183.584603019452
 21
2016.285384178184
 31
0.0
1001
AcDbBlockRepETag
1070
     1
1071
        1
1005
0
  0
LINE
  5
317
330
2
100
AcDbEntity
  8
0
100
AcDbLine
 10
9187.210533338353
 20
2012.659453859283
 30
0.0
 11
9187.210533338353
 21
2016.285384178184
 31
0.0
1001
AcDbBlockRepETag
1070
     1
1071
        2
1005
0
  0
LINE
  5
318
330
2
100
AcDbEntity
  8
0
100
AcDbLine
 10
9185.397568178899
 20
1995.798877876389
 30
0.0
 11
9183.584603019452
 21
1995.798877876389
 31
0.0
1001
AcDbBlockRepETag
1070
     1
1071
        3
1005
0
  0
TEXT
  5
319
330
2
100
AcDbEntity
  8
0
100
AcDbText
 10
9183.910936748151
 20
1986.734052079136
 30
0.0
 40
1.450372127560623
  1
B
  7
ISO Proportional
 72
     4
 11
9184.491085599175
 21
1987.459238142917
 31
0.0
100
AcDbText
1001
AcDbBlockRepETag
1070
     1
1071
        4
1005
0
  0
LINE
  5
31A
330
2
100
AcDbEntity
  8
0
100
AcDbLine
 10
9185.397568178899
 20
1979.119598409441
 30
0.0
 11
9183.584603019452
 21
1979.119598409441
 31
0.0
1001
AcDbBlockRepETag
1070
     1
1071
        5
1005
0
  0
TEXT
  5
31B
330
2
100
AcDbEntity
  8
0
100
AcDbText
 10
9184.0172483186
 20
1970.054772612189
 30
0.0
 40
1.450372127560623
  1
C
  7
ISO Proportional
 72
     4
 11
9184.491085599175
 21
1970.779958675969
 31
0.0
100
AcDbText
1001
AcDbBlockRepETag
1070
     1
1071
        6
1005
0
  0
LINE
  5
31C
330
2
100
AcDbEntity
  8
0
100
AcDbLine
 10
9181.77163786
 20
1962.440318942495
 30
0.0
 11
9185.397568178899
 21
1962.440318942495
 31
0.0
1001
AcDbBlockRepETag
1070
     1
1071
        7
1005
0
  0
TEXT
  5
31D
330
2
100
AcDbEntity
  8
0
100
AcDbText
 10
9174.012146977553
 20
2012.840750375227
 30
0.0
 40
1.450372127560623
  1
8
  7
ISO Proportional
 72
     4
 11
9174.519777222199
 21
2013.565936439007
 31
0.0
100
AcDbText
1001
AcDbBlockRepETag
1070
     1
1071
        8
1005
0
  0
LINE
  5
31E
330
2
100
AcDbEntity
  8
0
100
AcDbLine
 10
9165.454951424939
 20
2012.659453859283
 30
0.0
 11
9165.454951424939
 21
2014.472419018734
 31
0.0
1001
AcDbBlockRepETag
1070
     1
1071
        9
1005
0
  0
TEXT
  5
31F
330
2
100
AcDbEntity
  8
0
100
AcDbText
 10
9155.882495383046
 20
2012.840750375227
 30
0.0
 40
1.450372127560623
  1
7
  7
ISO Proportional
 72
     4
 11
9156.390125627693
 21
2013.565936439007
 31
0.0
100
AcDbText
1001
AcDbBlockRepETag
1070
     1
1071
       10
1005
0
  0
LINE
  5
320
330
2
100
AcDbEntity
  8
0
100
AcDbLine
 10
9147.325299830439
 20
2012.659453859283
 30
0.0
 11
9147.325299830439
 21
2014.472419018734
 31
0.0
1001
AcDbBlockRepETag
1070
     1
1071
       11
1005
0
  0
TEXT
  5
321
330
2
100
AcDbEntity
  8
0
100
AcDbText
 10
9137.76026695297
 20
2012.808202654254
 30
0.0
 40
1.450372127560623
  1
6
  7
ISO Proportional
 72
     4
 11
9138.260474033183
 21
2013.565936439007
 31
0.0
100
AcDbText
1001
AcDbBlockRepETag
1070
     1
1071
       12
1005
0
  0
LINE
  5
322
330
2
100
AcDbEntity
  8
0
100
AcDbLine
 10
9129.195648235933
 20
2012.659453859283
 30
0.0
 11
9129.195648235933
 21
2014.472419018734
 31
0.0
1001
AcDbBlockRepETag
1070
     1
1071
       13
1005
0
  0
TEXT
  5
323
330
2
100
AcDbEntity
  8
0
100
AcDbText
 10
9119.593154003744
 20
2012.870788565513
 30
0.0
 40
1.450372127560623
  1
5
  7
ISO Proportional
 72
     4
 11
9120.130822438678
 21
2013.565936439007
 31
0.0
100
AcDbText
1001
AcDbBlockRepETag
1070
     1
1071
       14
1005
0
  0
LINE
  5
324
330
2
100
AcDbEntity
  8
0
100
AcDbLine
 10
9185.397568178899
 20
1945.761039475549
 30
0.0
 11
9183.584603019452
 21
1945.761039475549
 31
0.0
1001
AcDbBlockRepETag
1070
     1
1071
       15
1005
0
  0
LINE
  5
325
330
2
100
AcDbEntity
  8
0
100
AcDbLine
 10
9183.222009987565
 20
1912.221184025707
 30
0.0
 11
9183.222009987565
 21
2012.659453859283
 31
0.0
1001
AcDbBlockRepETag
1070
     1
1071
       16
1005
0
  0
LINE
  5
326
330
2
100
AcDbEntity
  8
0
100
AcDbLine
 10
9183.584603019452
 20
1912.221184025707
 30
0.0
 11
9183.584603019452
 21
2012.659453859283
 31
0.0
1001
AcDbBlockRepETag
1070
     1
1071
       17
1005
0
  0
TEXT
  5
327
330
2
100
AcDbEntity
  8
0
100
AcDbText
 10
9183.869634236508
 20
1953.37549314524
 30
0.0
 40
1.450372127560623
  1
D
  7
ISO Proportional
 72
     4
 11
9184.491085599175
 21
1954.100679209021
 31
0.0
100
AcDbText
1001
AcDbBlockRepETag
1070
     1
1071
       18
1005
0
  0
TEXT
  5
328
330
2
100
AcDbEntity
  8
0
100
AcDbText
 10
9101.421021993148
 20
2012.840750375227
 30
0.0
 40
1.450372127560623
  1
4
  7
ISO Proportional
 72
     4
 11
9102.001170844173
 21
2013.565936439007
 31
0.0
100
AcDbText
1001
AcDbBlockRepETag
1070
     1
1071
       19
1005
0
  0
LINE
  5
329
330
2
100
AcDbEntity
  8
0
100
AcDbLine
 10
9092.936345046917
 20
2012.659453859283
 30
0.0
 11
9092.936345046917
 21
2014.472419018734
 31
0.0
1001
AcDbBlockRepETag
1070
     1
1071
       20
1005
0
  0
LINE
  5
32A
330
2
100
AcDbEntity
  8
0
100
AcDbLine
 10
9074.806693452407
 20
2012.659453859283
 30
0.0
 11
9074.806693452407
 21
2014.472419018734
 31
0.0
1001
AcDbBlockRepETag
1070
     1
1071
       21
1005
0
  0
TEXT
  5
32B
330
2
100
AcDbEntity
  8
0
100
AcDbText
 10
9065.209098578646
 20
2012.804348318876
 30
0.0
 40
1.450372127560623
  1
2
  7
ISO Proportional
 72
     4
 11
9065.74186765515
 21
2013.565936439007
 31
0.0
100
AcDbText
1001
AcDbBlockRepETag
1070
     1
1071
       22
1005
0
  0
LINE
  5
32C
330
2
100
AcDbEntity
  8
0
100
AcDbLine
 10
9056.677041857899
 20
2012.659453859283
 30
0.0
 11
9056.677041857899
 21
2014.472419018734
 31
0.0
1001
AcDbBlockRepETag
1070
     1
1071
       23
1005
0
  0
TEXT
  5
32D
330
2
100
AcDbEntity
  8
0
100
AcDbText
 10
9083.33385081473
 20
2012.870788565513
 30
0.0
 40
1.450372127560623
  1
3
  7
ISO Proportional
 72
     4
 11
9083.871519249662
 21
2013.565936439007
 31
0.0
100
AcDbText
1001
AcDbBlockRepETag
1070
     1
1071
       24
1005
0
  0
TEXT
  5
32E
330
2
100
AcDbEntity
  8
0
100
AcDbText
 10
9047.249623028754
 20
2012.840750375227
 30
0.0
 40
1.450372127560623
  1
1
  7
ISO Proportional
 72
     4
 11
9047.612216060645
 21
2013.565936439007
 31
0.0
100
AcDbText
1001
AcDbBlockRepETag
1070
     1
1071
       25
1005
0
  0
LINE
  5
32F
330
2
100
AcDbEntity
  8
0
100
AcDbLine
 10
9038.547390263392
 20
2016.285384178184
 30
0.0
 11
9034.92145994449
 21
2016.285384178184
 31
0.0
1001
AcDbBlockRepETag
1070
     1
1071
       26
1005
0
  0
LINE
  5
330
330
2
100
AcDbEntity
  8
0
100
AcDbLine
 10
9034.92145994449
 20
2016.285384178184
 30
0.0
 11
9034.92145994449
 21
2012.659453859283
 31
0.0
1001
AcDbBlockRepETag
1070
     1
1071
       27
1005
0
  0
TEXT
  5
331
330
2
100
AcDbEntity
  8
0
100
AcDbText
 10
9036.98824022627
 20
2003.413331546084
 30
0.0
 40
1.450372127560623
  1
A
  7
ISO Proportional
 72
     4
 11
9037.64090768367
 21
2004.138517609864
 31
0.0
100
AcDbText
1001
AcDbBlockRepETag
1070
     1
1071
       28
1005
0
  0
LINE
  5
332
330
2
100
AcDbEntity
  8
0
100
AcDbLine
 10
9038.547390263392
 20
1995.798877876389
 30
0.0
 11
9036.734425103942
 21
1995.798877876389
 31
0.0
1001
AcDbBlockRepETag
1070
     1
1071
       29
1005
0
  0
TEXT
  5
333
330
2
100
AcDbEntity
  8
0
100
AcDbText
 10
9037.060758832646
 20
1986.734052079136
 30
0.0
 40
1.450372127560623
  1
B
  7
ISO Proportional
 72
     4
 11
9037.64090768367
 21
1987.459238142917
 31
0.0
100
AcDbText
1001
AcDbBlockRepETag
1070
     1
1071
       30
1005
0
  0
LINE
  5
334
330
2
100
AcDbEntity
  8
0
100
AcDbLine
 10
9038.547390263392
 20
1979.119598409441
 30
0.0
 11
9036.734425103942
 21
1979.119598409441
 31
0.0
1001
AcDbBlockRepETag
1070
     1
1071
       31
1005
0
  0
TEXT
  5
335
330
2
100
AcDbEntity
  8
0
100
AcDbText
 10
9037.167070403095
 20
1970.054772612189
 30
0.0
 40
1.450372127560623
  1
C
  7
ISO Proportional
 72
     4
 11
9037.64090768367
 21
1970.779958675969
 31
0.0
100
AcDbText
1001
AcDbBlockRepETag
1070
     1
1071
       32
1005
0
  0
LINE
  5
336
330
2
100
AcDbEntity
  8
0
100
AcDbLine
 10
9038.547390263392
 20
1945.761039475549
 30
0.0
 11
9036.734425103942
 21
1945.761039475549
 31
0.0
1001
AcDbBlockRepETag
1070
     1
1071
       33
1005
0
  0
TEXT
  5
337
330
2
100
AcDbEntity
  8
0
100
AcDbText
 10
9037.133277439023
 20
1936.696213678293
 30
0.0
 40
1.450372127560623
  1
E
  7
ISO Proportional
 72
     4
 11
9037.64090768367
 21
1937.421399742073
 31
0.0
100
AcDbText
1001
AcDbBlockRepETag
1070
     1
1071
       34
1005
0
  0
LINE
  5
338
330
2
100
AcDbEntity
  8
0
100
AcDbLine
 10
9038.547390263392
 20
1929.081760008601
 30
0.0
 11
9036.734425103942
 21
1929.081760008601
 31
0.0
1001
AcDbBlockRepETag
1070
     1
1071
       35
1005
0
  0
TEXT
  5
339
330
2
100
AcDbEntity
  8
0
100
AcDbText
 10
9037.133277439023
 20
1920.016934211346
 30
0.0
 40
1.450372127560623
  1
F
  7
ISO Proportional
 72
     4
 11
9037.64090768367
 21
1920.742120275127
 31
0.0
100
AcDbText
1001
AcDbBlockRepETag
1070
     1
1071
       36
1005
0
  0
LINE
  5
33A
330
2
100
AcDbEntity
  8
0
100
AcDbLine
 10
9034.92145994449
 20
1908.595253706808
 30
0.0
 11
9038.547390263392
 21
1908.595253706808
 31
0.0
1001
AcDbBlockRepETag
1070
     1
1071
       37
1005
0
  0
LINE
  5
33B
330
2
100
AcDbEntity
  8
0
100
AcDbLine
 10
9034.92145994449
 20
1908.595253706808
 30
0.0
 11
9034.92145994449
 21
1912.221184025707
 31
0.0
1001
AcDbBlockRepETag
1070
     1
1071
       38
1005
0
  0
LINE
  5
33C
330
2
100
AcDbEntity
  8
0
100
AcDbLine
 10
9038.90998329528
 20
2012.659453859283
 30
0.0
 11
9038.90998329528
 21
1912.221184025707
 31
0.0
1001
AcDbBlockRepETag
1070
     1
1071
       39
1005
0
  0
LINE
  5
33D
330
2
100
AcDbEntity
  8
0
100
AcDbLine
 10
9038.547390263392
 20
2012.659453859283
 30
0.0
 11
9038.547390263392
 21
1912.221184025707
 31
0.0
1001
AcDbBlockRepETag
1070
     1
1071
       40
1005
0
  0
TEXT
  5
33E
330
2
100
AcDbEntity
  8
0
100
AcDbText
 10
9037.019456321003
 20
1953.37549314524
 30
0.0
 40
1.450372127560623
  1
D
  7
ISO Proportional
 72
     4
 11
9037.64090768367
 21
1954.100679209021
 31
0.0
100
AcDbText
1001
AcDbBlockRepETag
1070
     1
1071
       41
1005
0
  0
LINE
  5
33F
330
2
100
AcDbEntity
  8
0
100
AcDbLine
 10
9038.547390263392
 20
1912.583777057599
 30
0.0
 11
9183.584603019452
 21
1912.583777057599
 31
0.0
1001
AcDbBlockRepETag
1070
     1
1071
       42
1005
0
  0
LINE
  5
340
330
2
100
AcDbEntity
  8
0
100
AcDbLine
 10
9038.547390263392
 20
1912.221184025707
 30
0.0
 11
9183.584603019452
 21
1912.221184025707
 31
0.0
1001
AcDbBlockRepETag
1070
     1
1071
       43
1005
0
  0
LINE
  5
341
330
2
100
AcDbEntity
  8
0
100
AcDbLine
 10
9092.936345046917
 20
1910.408218866257
 30
0.0
 11
9129.195648235933
 21
1910.408218866257
 31
0.0
1001
AcDbBlockRepETag
1070
     1
1071
       44
1005
0
  0
LINE
  5
342
330
2
100
AcDbEntity
  8
0
100
AcDbLine
 10
9183.584603019452
 20
2012.296860827392
 30
0.0
 11
9038.547390263392
 21
2012.296860827392
 31
0.0
1001
AcDbBlockRepETag
1070
     1
1071
       45
1005
0
  0
LINE
  5
343
330
2
100
AcDbEntity
  8
0
100
AcDbLine
 10
9183.584603019452
 20
2012.659453859283
 30
0.0
 11
9038.547390263392
 21
2012.659453859283
 31
0.0
1001
AcDbBlockRepETag
1070
     1
1071
       46
1005
0
  0
LWPOLYLINE
  5
344
330
2
100
AcDbEntity
  8
0
100
AcDbPolyline
 90
        4
 70
     1
 43
0.0
 10
9036.734425103906
 20
1910.408218866257
 10
9185.397568178863
 20
1910.408218866257
 10
9185.397568178863
 20
2014.472419018734
 10
9036.734425103906
 20
2014.472419018734
1001
AcDbBlockRepETag
1070
     1
1071
       47
1005
0
  0
TEXT
  5
345
330
2
100
AcDbEntity
  8
0
100
AcDbText
 10
9174.012146977553
 20
1910.5895153822
 30
0.0
 40
1.450372127560623
  1
8
  7
ISO Proportional
 72
     4
 11
9174.519777222199
 21
1911.31470144598
 31
0.0
100
AcDbText
1001
AcDbBlockRepETag
1070
     1
1071
       48
1005
0
  0
LINE
  5
346
330
2
100
AcDbEntity
  8
0
100
AcDbLine
 10
9165.454951424939
 20
1910.408218866255
 30
0.0
 11
9165.454951424939
 21
1912.221184025707
 31
0.0
1001
AcDbBlockRepETag
1070
     1
1071
       49
1005
0
  0
TEXT
  5
347
330
2
100
AcDbEntity
  8
0
100
AcDbText
 10
9155.882495383046
 20
1910.5895153822
 30
0.0
 40
1.450372127560623
  1
7
  7
ISO Proportional
 72
     4
 11
9156.390125627693
 21
1911.31470144598
 31
0.0
100
AcDbText
1001
AcDbBlockRepETag
1070
     1
1071
       50
1005
0
  0
LINE
  5
348
330
2
100
AcDbEntity
  8
0
100
AcDbLine
 10
9147.325299830439
 20
1910.408218866255
 30
0.0
 11
9147.325299830439
 21
1912.221184025707
 31
0.0
1001
AcDbBlockRepETag
1070
     1
1071
       51
1005
0
  0
TEXT
  5
349
330
2
100
AcDbEntity
  8
0
100
AcDbText
 10
9137.76026695297
 20
1910.556967661227
 30
0.0
 40
1.450372127560623
  1
6
  7
ISO Proportional
 72
     4
 11
9138.260474033183
 21
1911.31470144598
 31
0.0
100
AcDbText
1001
AcDbBlockRepETag
1070
     1
1071
       52
1005
0
  0
LINE
  5
34A
330
2
100
AcDbEntity
  8
0
100
AcDbLine
 10
9129.195648235933
 20
1910.408218866255
 30
0.0
 11
9129.195648235933
 21
1912.221184025707
 31
0.0
1001
AcDbBlockRepETag
1070
     1
1071
       53
1005
0
  0
TEXT
  5
34B
330
2
100
AcDbEntity
  8
0
100
AcDbText
 10
9119.593154003744
 20
1910.619553572486
 30
0.0
 40
1.450372127560623
  1
5
  7
ISO Proportional
 72
     4
 11
9120.130822438678
 21
1911.31470144598
 31
0.0
100
AcDbText
1001
AcDbBlockRepETag
1070
     1
1071
       54
1005
0
  0
TEXT
  5
34C
330
2
100
AcDbEntity
  8
0
100
AcDbText
 10
9101.421021993148
 20
1910.5895153822
 30
0.0
 40
1.450372127560623
  1
4
  7
ISO Proportional
 72
     4
 11
9102.001170844173
 21
1911.31470144598
 31
0.0
100
AcDbText
1001
AcDbBlockRepETag
1070
     1
1071
       55
1005
0
  0
LINE
  5
34D
330
2
100
AcDbEntity
  8
0
100
AcDbLine
 10
9092.936345046917
 20
1910.408218866255
 30
0.0
 11
9092.936345046917
 21
1912.221184025707
 31
0.0
1001
AcDbBlockRepETag
1070
     1
1071
       56
1005
0
  0
LINE
  5
34E
330
2
100
AcDbEntity
  8
0
100
AcDbLine
 10
9074.806693452407
 20
1910.408218866255
 30
0.0
 11
9074.806693452407
 21
1912.221184025707
 31
0.0
1001
AcDbBlockRepETag
1070
     1
1071
       57
1005
0
  0
TEXT
  5
34F
330
2
100
AcDbEntity
  8
0
100
AcDbText
 10
9065.209098578646
 20
1910.553113325848
 30
0.0
 40
1.450372127560623
  1
2
  7
ISO Proportional
 72
     4
 11
9065.74186765515
 21
1911.31470144598
 31
0.0
100
AcDbText
1001
AcDbBlockRepETag
1070
     1
1071
       58
1005
0
  0
LINE
  5
350
330
2
100
AcDbEntity
  8
0
100
AcDbLine
 10
9056.677041857899
 20
1910.408218866255
 30
0.0
 11
9056.677041857899
 21
1912.221184025707
 31
0.0
1001
AcDbBlockRepETag
1070
     1
1071
       59
1005
0
  0
TEXT
  5
351
330
2
100
AcDbEntity
  8
0
100
AcDbText
 10
9083.33385081473
 20
1910.619553572486
 30
0.0
 40
1.450372127560623
  1
3
  7
ISO Proportional
 72
     4
 11
9083.871519249662
 21
1911.31470144598
 31
0.0
100
AcDbText
1001
AcDbBlockRepETag
1070
     1
1071
       60
1005
0
  0
TEXT
  5
352
330
2
100
AcDbEntity
  8
0
100
AcDbText
 10
9047.249623028754
 20
1910.5895153822
 30
0.0
 40
1.450372127560623
  1
1
  7
ISO Proportional
 72
     4
 11
9047.612216060645
 21
1911.31470144598
 31
0.0
100
AcDbText
1001
AcDbBlockRepETag
1070
     1
1071
       61
1005
0
  0
LINE
  5
353
330
2
100
AcDbEntity
  8
0
100
AcDbLine
 10
9187.21053333836
 20
1908.595253706808
 30
0.0
 11
9183.584603019458
 21
1908.595253706808
 31
0.0
1001
AcDbBlockRepETag
1070
     1
1071
       62
1005
0
  0
LINE
  5
354
330
2
100
AcDbEntity
  8
0
100
AcDbLine
 10
9187.21053333836
 20
1908.595253706808
 30
0.0
 11
9187.21053333836
 21
1912.221184025707
 31
0.0
1001
AcDbBlockRepETag
1070
     1
1071
       63
1005
0
  0
MTEXT
  5
355
330
2
100
AcDbEntity
  8
图层1
100
AcDbMText
 10
9119.807639778775
 20
1920.805144546609
 30
0.0
 40
1.541186611830303
 41
7.532598155977771
 71
     1
 72
     5
  1
PC-1250Z100
 73
     1
 44
1.0
1001
AcDbBlockRepETag
1070
     1
1071
        0
1005
0
  0
MTEXT
  5
356
330
2
100
AcDbEntity
  8
图层1
100
AcDbMText
 10
9126.460363397342
 20
1917.661248063488
 30
0.0
 40
1.139730582960261
 41
7.532598155977771
 71
     1
 72
     5
  1
2020-3-21
 73
     1
 44
1.0
1001
AcDbBlockRepETag
1070
     1
1071
        2
1005
0
  0
MTEXT
  5
357
330
2
100
AcDbEntity
  8
图层1
100
AcDbMText
 10
9118.530141869619
 20
1917.727010689408
 30
0.0
 40
1.04411014232887
 41
18.65536379206598
 71
     1
 72
     5
  1
{\H1.333x;C.Y.CAI}
 73
     1
 44
1.0
1001
AcDbBlockRepETag
1070
     1
1071
        3
1005
0
  0
LINE
  5
358
330
2
100
AcDbEntity
  8
图层1
 48
0.05
100
AcDbLine
 10
9095.979590549852
 20
1916.884974097985
 30
0.0
 11
9099.912116757923
 21
1916.884974097985
 31
0.0
1001
AcDbBlockRepETag
1070
     1
1071
        4
1005
0
  0
LINE
  5
359
330
2
100
AcDbEntity
  8
图层1
 48
0.05
100
AcDbLine
 10
9088.542743253361
 20
1916.884974097985
 30
0.0
 11
9092.475269461434
 21
1916.884974097985
 31
0.0
1001
AcDbBlockRepETag
1070
     1
1071
        5
1005
0
  0
MTEXT
  5
35A
330
2
100
AcDbEntity
  8
图层1
100
AcDbMText
 10
9070.143996521053
 20
1917.612498044755
 30
0.0
 40
1.139730582960261
 41
5.023932409688836
 71
     1
 72
     5
  1
NEW
 73
     1
 44
1.0
1001
AcDbBlockRepETag
1070
     1
1071
        6
1005
0
  0
MTEXT
  5
35B
330
2
100
AcDbEntity
  8
图层1
100
AcDbMText
 10
9046.483839616017
 20
1917.631498402369
 30
0.0
 40
1.025757524664236
 41
8.01610510015384
 71
     1
 72
     5
  1
2020-3-21
 73
     1
 44
1.0
1001
AcDbBlockRepETag
1070
     1
1071
        7
1005
0
  0
MTEXT
  5
35C
330
2
100
AcDbEntity
  8
图层1
100
AcDbMText
 10
9042.851546420314
 20
1917.585469160751
 30
0.0
 40
1.139730582960261
 41
0.4667097271887684
 71
     1
 72
     5
  1
{\fArial|b0|i0|c0|p32;A/0}
 73
     1
 44
1.0
1001
AcDbBlockRepETag
1070
     1
1071
        8
1005
0
  0
LINE
  5
35D
330
2
100
AcDbEntity
  8
图层1
100
AcDbLine
 10
9183.222009987579
 20
1924.992215630745
 30
0.0
 11
9111.136547410882
 21
1924.992215630745
 31
0.0
1001
AcDbBlockRepETag
1070
     1
1071
        9
1005
0
  0
LINE
  5
35E
330
2
100
AcDbEntity
  8
图层1
 48
0.1
100
AcDbLine
 10
9134.832420115056
 20
1915.619599085639
 30
0.0
 11
9143.167992980364
 21
1915.619599085639
 31
0.0
1001
AcDbBlockRepETag
1070
     1
1071
       10
1005
0
  0
LINE
  5
35F
330
2
100
AcDbEntity
  8
图层1
100
AcDbLine
 10
9143.167992980364
 20
1921.155027616401
 30
0.0
 11
9111.136547410882
 21
1921.155027616401
 31
0.0
1001
AcDbBlockRepETag
1070
     1
1071
       11
1005
0
  0
LINE
  5
360
330
2
100
AcDbEntity
  8
图层1
100
AcDbLine
 10
9143.167992980364
 20
1918.395635498904
 30
0.0
 11
9111.136547410882
 21
1918.395635498904
 31
0.0
1001
AcDbBlockRepETag
1070
     1
1071
       12
1005
0
  0
LINE
  5
361
330
2
100
AcDbEntity
  8
图层1
 48
0.1
100
AcDbLine
 10
9143.167992980364
 20
1924.992215630745
 30
0.0
 11
9143.167992980364
 21
1912.583777057593
 31
0.0
1001
AcDbBlockRepETag
1070
     1
1071
       13
1005
0
  0
LINE
  5
362
330
2
100
AcDbEntity
  8
图层1
  6
CENTER2
 62
     1
 48
0.2
100
AcDbLine
 10
9141.00346697853
 20
1914.343377029471
 30
0.0
 11
9142.839824818372
 21
1914.343377029471
 31
0.0
1001
AcDbBlockRepETag
1070
     1
1071
       14
1005
0
  0
MTEXT
  5
363
330
2
100
AcDbEntity
  8
图层1
 62
     4
100
AcDbMText
 10
9139.75133488493
 20
1920.297930484705
 30
0.0
 40
1.018077673039516
 41
8.136472806840668
 71
     1
 72
     5
  1
mm
  7
ROMANS
 73
     1
 44
1.0
1001
AcDbBlockRepETag
1070
     1
1071
       15
1005
0
  0
LINE
  5
364
330
2
100
AcDbEntity
  8
图层1
100
AcDbLine
 10
9142.514962201605
 20
1914.752553402898
 30
0.0
 11
9142.514962201605
 21
1913.934200656043
 31
0.0
1001
AcDbBlockRepETag
1070
     1
1071
       16
1005
0
  0
LINE
  5
365
330
2
100
AcDbEntity
  8
图层1
100
AcDbLine
 10
9141.24099411242
 20
1914.138788842755
 30
0.0
 11
9142.514962201605
 21
1913.934200656043
 31
0.0
1001
AcDbBlockRepETag
1070
     1
1071
       17
1005
0
  0
LINE
  5
366
330
2
100
AcDbEntity
  8
图层1
100
AcDbLine
 10
9141.24099411242
 20
1914.547965216183
 30
0.0
 11
9142.514962201605
 21
1914.752553402898
 31
0.0
1001
AcDbBlockRepETag
1070
     1
1071
       18
1005
0
  0
MTEXT
  5
367
330
2
100
AcDbEntity
  8
图层1
100
AcDbMText
 10
9147.711151582619
 20
1914.60450699797
 30
0.0
 40
0.9162699057355656
 41
7.322820663306114
 71
     1
 72
     5
  1
{\C2;Product:}
  7
ROMANS
 73
     1
 44
1.0
1001
AcDbBlockRepETag
1070
     1
1071
       19
1005
0
  0
MTEXT
  5
368
330
2
100
AcDbEntity
  8
图层1
100
AcDbMText
 10
9147.820654515602
 20
1917.469313563014
 30
0.0
 40
0.9162699057355656
 41
7.322820663306114
 71
     1
 72
     5
  1
{\C2;PART NO.}
  7
ROMANS
 73
     1
 44
1.0
1001
AcDbBlockRepETag
1070
     1
1071
       20
1005
0
  0
LINE
  5
369
330
2
100
AcDbEntity
  8
图层1
 48
0.1
100
AcDbLine
 10
9156.030570223895
 20
1918.378991203136
 30
0.0
 11
9156.030570223895
 21
1912.826918376606
 31
0.0
1001
AcDbBlockRepETag
1070
     1
1071
       22
1005
0
  0
MTEXT
  5
36A
102
{ACAD_XDICTIONARY
360
36B
102
}
330
2
100
AcDbEntity
  8
图层1
100
AcDbMText
 10
9143.666805390154
 20
1917.751277403246
 30
0.0
 40
1.036930963280989
 41
4.735930089578663
 71
     1
 72
     5
  1
{\fPMingLiU|b0|i0|c136|p54;\C2;\U+6599 \U+865F}
 73
     1
 44
1.0
1001
AcDbBlockRepETag
1070
     1
1071
       23
1005
0
  0
MTEXT
  5
36D
102
{ACAD_XDICTIONARY
360
36E
102
}
330
2
100
AcDbEntity
  8
图层1
100
AcDbMText
 10
9143.657833343286
 20
1914.828460931449
 30
0.0
 40
1.036930963280989
 41
4.735930089578663
 71
     1
 72
     5
  1
{\fPMingLiU|b0|i0|c136|p54;\C2;\U+54C1 \U+540D}
 73
     1
 44
1.0
1001
AcDbBlockRepETag
1070
     1
1071
       24
1005
0
  0
LINE
  5
370
330
2
100
AcDbEntity
  8
图层1
 48
0.1
100
AcDbLine
 10
9145.599418224016
 20
1915.60295478987
 30
0.0
 11
9148.817474887893
 21
1915.60295478987
 31
0.0
1001
AcDbBlockRepETag
1070
     1
1071
       27
1005
0
  0
LINE
  5
371
330
2
100
AcDbEntity
  8
图层1
 62
     0
100
AcDbLine
 10
9183.222009987579
 20
1922.066335507824
 30
0.0
 11
9183.222009987579
 21
1912.583777057593
 31
0.0
1001
AcDbBlockRepETag
1070
     1
1071
       28
1005
0
  0
LINE
  5
372
330
2
100
AcDbEntity
  8
图层1
 62
     0
100
AcDbLine
 10
9183.222009987579
 20
1912.583777057593
 30
0.0
 11
9183.222009987579
 21
1922.066335507824
 31
0.0
1001
AcDbBlockRepETag
1070
     1
1071
       29
1005
0
  0
LINE
  5
373
330
2
100
AcDbEntity
  8
图层1
100
AcDbLine
 10
9183.222009987579
 20
1924.992215630745
 30
0.0
 11
9183.222009987579
 21
1912.583777057593
 31
0.0
1001
AcDbBlockRepETag
1070
     1
1071
       30
1005
0
  0
LINE
  5
374
330
2
100
AcDbEntity
  8
图层1
 48
0.1
100
AcDbLine
 10
9143.167992980364
 20
1918.378991203136
 30
0.0
 11
9183.222009987579
 21
1918.378991203136
 31
0.0
1001
AcDbBlockRepETag
1070
     1
1071
       31
1005
0
  0
LINE
  5
375
330
2
100
AcDbEntity
  8
图层1
 48
0.1
100
AcDbLine
 10
9143.167992980364
 20
1915.619599085639
 30
0.0
 11
9183.222009987579
 21
1915.619599085639
 31
0.0
1001
AcDbBlockRepETag
1070
     1
1071
       32
1005
0
  0
LINE
  5
376
330
2
100
AcDbEntity
  8
图层1
100
AcDbLine
 10
9183.222009987579
 20
1912.583777057593
 30
0.0
 11
9038.90998329529
 21
1912.583777057593
 31
0.0
1001
AcDbBlockRepETag
1070
     1
1071
       35
1005
0
  0
LINE
  5
377
330
2
100
AcDbEntity
  8
图层1
100
AcDbLine
 10
9183.222009987579
 20
1912.583777057593
 30
0.0
 11
9038.90998329529
 21
1912.583777057593
 31
0.0
1001
AcDbBlockRepETag
1070
     1
1071
       36
1005
0
  0
MTEXT
  5
378
330
2
100
AcDbEntity
  8
图层1
100
AcDbMText
 10
9135.343955055178
 20
1917.444834549071
 30
0.0
 40
0.7069983840552205
 41
5.650340495210017
 71
     1
 72
     5
  1
{\C2;SIZE}
  7
ROMANS
 73
     1
 44
1.0
1001
AcDbBlockRepETag
1070
     1
1071
       38
1005
0
  0
MTEXT
  5
379
330
2
100
AcDbEntity
  8
图层1
100
AcDbMText
 10
9135.377379069666
 20
1920.157906922672
 30
0.0
 40
0.7069983840552205
 41
5.650340495210017
 71
     1
 72
     5
  1
{\C2;UNIT}
  7
ROMANS
 73
     1
 44
1.0
1001
AcDbBlockRepETag
1070
     1
1071
       39
1005
0
  0
MTEXT
  5
37A
330
2
100
AcDbEntity
  8
图层1
100
AcDbMText
 10
9135.375711498831
 20
1914.412651662899
 30
0.0
 40
0.7069983840552205
 41
5.650340495210017
 71
     1
 72
     5
  1
{\C2;SHEET}
  7
ROMANS
 73
     1
 44
1.0
1001
AcDbBlockRepETag
1070
     1
1071
       40
1005
0
  0
LINE
  5
37B
330
2
100
AcDbEntity
  8
图层1
100
AcDbLine
 10
9134.832420115056
 20
1924.992215630745
 30
0.0
 11
9134.832420115056
 21
1912.843562672378
 31
0.0
1001
AcDbBlockRepETag
1070
     1
1071
       42
1005
0
  0
LINE
  5
37C
330
2
100
AcDbEntity
  8
图层1
100
AcDbLine
 10
9134.832420115056
 20
1924.992215630745
 30
0.0
 11
9134.832420115056
 21
1912.583777057593
 31
0.0
1001
AcDbBlockRepETag
1070
     1
1071
       43
1005
0
  0
LINE
  5
37D
330
2
100
AcDbEntity
  8
图层1
100
AcDbLine
 10
9134.832420115056
 20
1912.583777057593
 30
0.0
 11
9111.136547410882
 21
1912.583777057593
 31
0.0
1001
AcDbBlockRepETag
1070
     1
1071
       44
1005
0
  0
LINE
  5
37E
330
2
100
AcDbEntity
  8
图层1
100
AcDbLine
 10
9134.832420115056
 20
1915.619599085639
 30
0.0
 11
9111.136547410882
 21
1915.619599085639
 31
0.0
1001
AcDbBlockRepETag
1070
     1
1071
       45
1005
0
  0
MTEXT
  5
37F
330
2
100
AcDbEntity
  8
图层1
 62
     4
100
AcDbMText
 10
9139.994589793229
 20
1917.532594046156
 30
0.0
 40
1.018077673039516
 41
8.136472806840668
 71
     1
 72
     5
  1
A4
  7
ROMANS
 73
     1
 44
1.0
1001
AcDbBlockRepETag
1070
     1
1071
       46
1005
0
  0
LINE
  5
380
330
2
100
AcDbEntity
  8
图层1
100
AcDbLine
 10
9141.24099411242
 20
1914.547965216183
 30
0.0
 11
9141.24099411242
 21
1914.138788842755
 31
0.0
1001
AcDbBlockRepETag
1070
     1
1071
       47
1005
0
  0
LINE
  5
381
330
2
100
AcDbEntity
  8
图层1
  6
CENTER2
 62
     1
 48
0.2
100
AcDbLine
 10
9139.936968922768
 20
1915.003333400404
 30
0.0
 11
9139.936968922768
 21
1913.688339442413
 31
0.0
1001
AcDbBlockRepETag
1070
     1
1071
       48
1005
0
  0
CIRCLE
  5
382
330
2
100
AcDbEntity
  8
图层1
100
AcDbCircle
 10
9139.936968922768
 20
1914.343377029471
 30
0.0
 40
0.2045881867136665
1001
AcDbBlockRepETag
1070
     1
1071
       49
1005
0
  0
LINE
  5
383
330
2
100
AcDbEntity
  8
图层1
  6
CENTER2
 62
     1
 48
0.2
100
AcDbLine
 10
9139.23735424815
 20
1914.343377029471
 30
0.0
 11
9140.668710118736
 21
1914.343377029471
 31
0.0
1001
AcDbBlockRepETag
1070
     1
1071
       50
1005
0
  0
CIRCLE
  5
384
330
2
100
AcDbEntity
  8
图层1
100
AcDbCircle
 10
9139.936968922768
 20
1914.343377029471
 30
0.0
 40
0.4091763734273331
1001
AcDbBlockRepETag
1070
     1
1071
       51
1005
0
  0
LINE
  5
385
330
2
100
AcDbEntity
  8
图层1
 48
0.1
100
AcDbLine
 10
9139.000206547711
 20
1924.992215630745
 30
0.0
 11
9139.000206547711
 21
1912.583777057593
 31
0.0
1001
AcDbBlockRepETag
1070
     1
1071
       52
1005
0
  0
LINE
  5
386
330
2
100
AcDbEntity
  8
图层1
100
AcDbLine
 10
9101.709902290147
 20
1923.260686522791
 30
0.0
 11
9111.136547410882
 21
1923.260686522791
 31
0.0
1001
AcDbBlockRepETag
1070
     1
1071
       54
1005
0
  0
LINE
  5
387
330
2
100
AcDbEntity
  8
图层1
100
AcDbLine
 10
9038.90998329529
 20
1924.992215630745
 30
0.0
 11
9111.136547410882
 21
1924.992215630745
 31
0.0
1001
AcDbBlockRepETag
1070
     1
1071
       55
1005
0
  0
MTEXT
  5
388
330
2
100
AcDbEntity
  8
图层1
100
AcDbMText
 10
9104.904929894841
 20
1924.5438583006
 30
0.0
 40
0.8955312864699461
 41
11.92259093924046
 71
     1
 72
     5
  1
{\C2;PART}
  7
ROMANS
 73
     1
 44
1.0
1001
AcDbBlockRepETag
1070
     1
1071
       56
1005
0
  0
MTEXT
  5
389
102
{ACAD_XDICTIONARY
360
38A
102
}
330
2
100
AcDbEntity
  8
图层1
100
AcDbMText
 10
9112.322384933488
 20
1924.349642941619
 30
0.0
 40
0.8955312864699461
 41
11.92259093924046
 71
     1
 72
     5
  1
{\C2; \fPMingLiU|b0|i0|c136|p54;\U+984F \U+8272}
 73
     1
 44
1.0
1001
AcDbBlockRepETag
1070
     1
1071
       57
1005
0
  0
MTEXT
  5
38C
330
2
100
AcDbEntity
  8
图层1
100
AcDbMText
 10
9112.767482321872
 20
1922.86408443556
 30
0.0
 40
0.7069983840552205
 41
5.650340495210017
 71
     1
 72
     5
  1
{\Fromans.shx|c134;\C2;COLOR}
  7
ROMANS
 73
     1
 44
1.0
1001
AcDbBlockRepETag
1070
     1
1071
       58
1005
0
  0
MTEXT
  5
38D
330
2
100
AcDbEntity
  8
图层1
100
AcDbMText
 10
9135.330905564233
 20
1923.411613735949
 30
0.0
 40
0.7069983840552205
 41
5.650340495210017
 71
     1
 72
     5
  1
{\C2;SCALE}
  7
ROMANS
 73
     1
 44
1.0
1001
AcDbBlockRepETag
1070
     1
1071
       59
1005
0
  0
LINE
  5
38E
330
2
100
AcDbEntity
  8
图层1
100
AcDbLine
 10
9117.735198995395
 20
1922.196917494345
 30
0.0
 11
9117.735198995395
 21
1912.583777057593
 31
0.0
1001
AcDbBlockRepETag
1070
     1
1071
       60
1005
0
  0
TEXT
  5
38F
330
2
100
AcDbEntity
  8
图层1
 62
     2
100
AcDbText
 10
9107.51935094078
 20
1916.850780691708
 30
0.0
 40
0.7069983840552205
  1
%%p0.20
  7
ROMANS
100
AcDbText
1001
AcDbBlockRepETag
1070
     1
1071
       61
1005
0
  0
LINE
  5
390
330
2
100
AcDbEntity
  8
图层1
100
AcDbLine
 10
9101.709902290147
 20
1916.334570090977
 30
0.0
 11
9111.136547410882
 21
1916.334570090977
 31
0.0
1001
AcDbBlockRepETag
1070
     1
1071
       62
1005
0
  0
TEXT
  5
391
330
2
100
AcDbEntity
  8
图层1
 62
     2
100
AcDbText
 10
9107.806982949131
 20
1913.314761723372
 30
0.0
 40
0.7069983840552205
  1
TOL
  7
ROMANS
100
AcDbText
1001
AcDbBlockRepETag
1070
     1
1071
       63
1005
0
  0
LINE
  5
392
330
2
100
AcDbEntity
  8
图层1
100
AcDbLine
 10
9101.709902290147
 20
1914.603772440609
 30
0.0
 11
9111.136547410882
 21
1914.603772440609
 31
0.0
1001
AcDbBlockRepETag
1070
     1
1071
       64
1005
0
  0
LINE
  5
393
330
2
100
AcDbEntity
  8
图层1
100
AcDbLine
 10
9111.136547410882
 20
1924.992215630745
 30
0.0
 11
9111.136547410882
 21
1912.583777057593
 31
0.0
1001
AcDbBlockRepETag
1070
     1
1071
       65
1005
0
  0
LINE
  5
394
330
2
100
AcDbEntity
  8
图层1
100
AcDbLine
 10
9111.136547410882
 20
1924.992215630745
 30
0.0
 11
9111.136547410882
 21
1912.583777057593
 31
0.0
1001
AcDbBlockRepETag
1070
     1
1071
       66
1005
0
  0
TEXT
  5
395
330
2
100
AcDbEntity
  8
图层1
 62
     2
100
AcDbText
 10
9107.806982949131
 20
1915.046208505047
 30
0.0
 40
0.7069983840552205
  1
%%p 1%%d
  7
ROMANS
100
AcDbText
1001
AcDbBlockRepETag
1070
     1
1071
       67
1005
0
  0
MTEXT
  5
396
330
2
100
AcDbEntity
  8
图层1
100
AcDbMText
 10
9112.115592483219
 20
1913.851440885316
 30
0.0
 40
0.7069983840552205
 41
5.650340495210017
 71
     1
 72
     5
  1
{\C2;APPROVE}
  7
ROMANS
 73
     1
 44
1.0
1001
AcDbBlockRepETag
1070
     1
1071
       70
1005
0
  0
MTEXT
  5
397
102
{ACAD_XDICTIONARY
360
398
102
}
330
2
100
AcDbEntity
  8
图层1
100
AcDbMText
 10
9112.934254790634
 20
1915.431241326092
 30
0.0
 40
0.8955312864699461
 41
11.92259093924046
 71
     1
 72
     5
  1
{\fPMingLiU|b0|i0|c136|p54;\C2;\U+6838 \U+51C6}
 73
     1
 44
1.0
1001
AcDbBlockRepETag
1070
     1
1071
       71
1005
0
  0
LINE
  5
39A
330
2
100
AcDbEntity
  8
图层1
 48
0.1
100
AcDbLine
 10
9117.735198995395
 20
1919.420881081079
 30
0.0
 11
9117.735198995395
 21
1924.992215630745
 31
0.0
1001
AcDbBlockRepETag
1070
     1
1071
       72
1005
0
  0
TEXT
  5
39B
330
2
100
AcDbEntity
  8
图层1
 62
     2
100
AcDbText
 10
9107.51935094078
 20
1918.70920881879
 30
0.0
 40
0.7069983840552205
  1
%%p0.15
  7
ROMANS
100
AcDbText
1001
AcDbBlockRepETag
1070
     1
1071
       73
1005
0
  0
TEXT
  5
39C
330
2
100
AcDbEntity
  8
图层1
 62
     2
100
AcDbText
 10
9107.51935094078
 20
1920.513780440108
 30
0.0
 40
0.7069983840552205
  1
%%p0.10
  7
ROMANS
100
AcDbText
1001
AcDbBlockRepETag
1070
     1
1071
       74
1005
0
  0
TEXT
  5
39D
330
2
100
AcDbEntity
  8
图层1
 62
     2
100
AcDbText
 10
9107.51935094078
 20
1922.264496121004
 30
0.0
 40
0.7069983840552205
  1
%%p0.05
  7
ROMANS
100
AcDbText
1001
AcDbBlockRepETag
1070
     1
1071
       75
1005
0
  0
LINE
  5
39E
330
2
100
AcDbEntity
  8
图层1
100
AcDbLine
 10
9101.709902290147
 20
1918.066099198931
 30
0.0
 11
9111.136547410882
 21
1918.066099198931
 31
0.0
1001
AcDbBlockRepETag
1070
     1
1071
       76
1005
0
  0
LINE
  5
39F
330
2
100
AcDbEntity
  8
图层1
100
AcDbLine
 10
9101.709902290147
 20
1921.529157414837
 30
0.0
 11
9111.136547410882
 21
1921.529157414837
 31
0.0
1001
AcDbBlockRepETag
1070
     1
1071
       77
1005
0
  0
LINE
  5
3A0
330
2
100
AcDbEntity
  8
图层1
100
AcDbLine
 10
9101.709902290147
 20
1919.79762830688
 30
0.0
 11
9111.136547410882
 21
1919.79762830688
 31
0.0
1001
AcDbBlockRepETag
1070
     1
1071
       78
1005
0
  0
MTEXT
  5
3A1
102
{ACAD_XDICTIONARY
360
3A2
102
}
330
2
100
AcDbEntity
  8
图层1
100
AcDbMText
 10
9112.92992243497
 20
1921.049161460928
 30
0.0
 40
0.8955312864699461
 41
11.92259093924046
 71
     1
 72
     5
  1
{\fPMingLiU|b0|i0|c136|p54;\C2;\U+6750 \U+8CEA}
  7
ROMANS
 73
     1
 44
1.0
1001
AcDbBlockRepETag
1070
     1
1071
       79
1005
0
  0
MTEXT
  5
3A4
330
2
100
AcDbEntity
  8
图层1
100
AcDbMText
 10
9112.758899801827
 20
1916.625082539872
 30
0.0
 40
0.7069983840552205
 41
5.650322940731722
 71
     1
 72
     5
  1
{\C2;DESIGN}
  7
ROMANS
 73
     1
 44
1.0
1001
AcDbBlockRepETag
1070
     1
1071
       80
1005
0
  0
MTEXT
  5
3A5
330
2
100
AcDbEntity
  8
图层1
100
AcDbMText
 10
9112.373071364446
 20
1919.430419889346
 30
0.0
 40
0.7069983840552205
 41
5.650340495210017
 71
     1
 72
     5
  1
{\C2;MATERIAL\f??|b0|i0|c134|p6; }
  7
ROMANS
 73
     1
 44
1.0
1001
AcDbBlockRepETag
1070
     1
1071
       81
1005
0
  0
MTEXT
  5
3A6
102
{ACAD_XDICTIONARY
360
3A7
102
}
330
2
100
AcDbEntity
  8
图层1
100
AcDbMText
 10
9113.109019059926
 20
1918.144089925048
 30
0.0
 40
0.8955312864699461
 41
11.92259093924046
 71
     1
 72
     5
  1
{\fPMingLiU|b0|i0|c136|p54;\C2;\U+8A2D \U+8A08}
 73
     1
 44
1.0
1001
AcDbBlockRepETag
1070
     1
1071
       82
1005
0
  0
LINE
  5
3A9
330
2
100
AcDbEntity
  8
图层1
 48
0.1
100
AcDbLine
 10
9126.094832406298
 20
1912.583777057593
 30
0.0
 11
9126.094832406298
 21
1918.395635498904
 31
0.0
1001
AcDbBlockRepETag
1070
     1
1071
       83
1005
0
  0
MTEXT
  5
3AA
330
2
100
AcDbEntity
  8
图层1
 62
     6
100
AcDbMText
 10
9043.077366801552
 20
1913.908541149598
 30
0.0
 40
0.7069983840552205
 41
5.650340495210017
 71
     1
 72
     5
  1
{\C2;REV}
  7
ROMANS
 73
     1
 44
1.0
1001
AcDbBlockRepETag
1070
     1
1071
       84
1005
0
  0
LINE
  5
3AB
330
2
100
AcDbEntity
  8
图层1
100
AcDbLine
 10
9038.90998329529
 20
1912.583777057593
 30
0.0
 11
9038.90998329529
 21
1924.992215630745
 31
0.0
1001
AcDbBlockRepETag
1070
     1
1071
       85
1005
0
  0
LINE
  5
3AC
330
2
100
AcDbEntity
  8
图层1
100
AcDbLine
 10
9045.727836968781
 20
1924.992215630745
 30
0.0
 11
9045.727836968781
 21
1912.583777057593
 31
0.0
1001
AcDbBlockRepETag
1070
     1
1071
       86
1005
0
  0
LINE
  5
3AD
330
2
100
AcDbEntity
  8
图层1
100
AcDbLine
 10
9041.838589242212
 20
1924.992215630745
 30
0.0
 11
9041.838589242212
 21
1912.583777057593
 31
0.0
1001
AcDbBlockRepETag
1070
     1
1071
       87
1005
0
  0
MTEXT
  5
3AE
330
2
100
AcDbEntity
  8
图层1
100
AcDbMText
 10
9040.463007880486
 20
1918.553387505348
 30
0.0
 40
1.178330640092034
 41
3.299346798621349
 71
     5
 72
     5
  1
{\Fromans|c0;\C2;C\Fromans|c134;\P\Fromans|c0;H\Fromans|c134;\P\Fromans|c0;A\Fromans|c134;\P\Fromans|c0;N\Fromans|c134;\P\Fromans|c0;G\Fromans|c134;\P\Fromans|c0;E}
 73
     1
 44
1.0
1001
AcDbBlockRepETag
1070
     1
1071
       88
1005
0
  0
MTEXT
  5
3AF
102
{ACAD_XDICTIONARY
360
3B0
102
}
330
2
100
AcDbEntity
  8
图层1
 62
     6
100
AcDbMText
 10
9042.67050522602
 20
1915.363080088283
 30
0.0
 40
0.8955312864699461
 41
4.090094916360734
 71
     1
 72
     5
  1
{\fPMingLiU|b0|i0|c136|p54;\C2;\U+7248\U+6B21}
 73
     1
 44
1.0
1001
AcDbBlockRepETag
1070
     1
1071
       89
1005
0
  0
MTEXT
  5
3B2
330
2
100
AcDbEntity
  8
图层1
100
AcDbMText
 10
9088.55532580182
 20
1913.919656887182
 30
0.0
 40
0.7069983840552205
 41
14.83038101662465
 71
     1
 72
     5
  1
{\C2;CHANGE}
  7
ROMANS
 73
     1
 44
1.0
1001
AcDbBlockRepETag
1070
     1
1071
       90
1005
0
  0
LINE
  5
3B3
330
2
100
AcDbEntity
  8
图层1
100
AcDbLine
 10
9094.273054993633
 20
1924.992215630745
 30
0.0
 11
9094.273054993633
 21
1912.583777057593
 31
0.0
1001
AcDbBlockRepETag
1070
     1
1071
       91
1005
0
  0
LINE
  5
3B4
330
2
100
AcDbEntity
  8
图层1
100
AcDbLine
 10
9086.836207697141
 20
1924.992215630745
 30
0.0
 11
9086.836207697141
 21
1912.583777057593
 31
0.0
1001
AcDbBlockRepETag
1070
     1
1071
       92
1005
0
  0
LINE
  5
3B5
330
2
100
AcDbEntity
  8
图层1
100
AcDbLine
 10
9054.048133087832
 20
1924.992215630745
 30
0.0
 11
9054.048133087832
 21
1912.583777057593
 31
0.0
1001
AcDbBlockRepETag
1070
     1
1071
       93
1005
0
  0
MTEXT
  5
3B6
330
2
100
AcDbEntity
  8
图层1
100
AcDbMText
 10
9062.644534096753
 20
1913.893379500832
 30
0.0
 40
0.7069983840552205
 41
14.83038101662465
 71
     1
 72
     5
  1
{\C2;MODIFICATION DESCRIPTION}
  7
ROMANS
 73
     1
 44
1.0
1001
AcDbBlockRepETag
1070
     1
1071
       94
1005
0
  0
MTEXT
  5
3B7
330
2
100
AcDbEntity
  8
图层1
 62
     6
100
AcDbMText
 10
9048.799921284409
 20
1913.870087271678
 30
0.0
 40
0.7069983840552205
 41
5.650340495210017
 71
     1
 72
     5
  1
{\C2;DATE}
  7
ROMANS
 73
     1
 44
1.0
1001
AcDbBlockRepETag
1070
     1
1071
       95
1005
0
  0
MTEXT
  5
3B8
102
{ACAD_XDICTIONARY
360
3B9
102
}
330
2
100
AcDbEntity
  8
图层1
 62
     6
100
AcDbMText
 10
9048.586985189357
 20
1915.384125616333
 30
0.0
 40
0.8955312864699461
 41
4.090094916360734
 71
     1
 72
     5
  1
{\fPMingLiU|b0|i0|c136|p54;\C2;\U+65E5\U+671F}
 73
     1
 44
1.0
1001
AcDbBlockRepETag
1070
     1
1071
       96
1005
0
  0
MTEXT
  5
3BB
102
{ACAD_XDICTIONARY
360
3BC
102
}
330
2
100
AcDbEntity
  8
图层1
100
AcDbMText
 10
9065.870122044541
 20
1915.403890764165
 30
0.0
 40
0.8955312864699461
 41
11.92259093924046
 71
     1
 72
     5
  1
{\fPMingLiU|b0|i0|c136|p54;\C2;\U+8B8A\U+3000\U+66F4\U+3000\U+8AAA\U+3000\U+660E}
  7
ROMANS
 73
     1
 44
1.0
1001
AcDbBlockRepETag
1070
     1
1071
       97
1005
0
  0
MTEXT
  5
3BE
102
{ACAD_XDICTIONARY
360
3BF
102
}
330
2
100
AcDbEntity
  8
图层1
100
AcDbMText
 10
9089.179813714769
 20
1915.378863303335
 30
0.0
 40
0.8955312864699461
 41
11.92259093924046
 71
     1
 72
     5
  1
{\fPMingLiU|b0|i0|c136|p54;\C2;\U+8B8A \U+66F4}
 73
     1
 44
1.0
1001
AcDbBlockRepETag
1070
     1
1071
       98
1005
0
  0
MTEXT
  5
3C1
102
{ACAD_XDICTIONARY
360
3C2
102
}
330
2
100
AcDbEntity
  8
图层1
100
AcDbMText
 10
9096.27807102127
 20
1915.418251756173
 30
0.0
 40
0.8955312864699461
 41
11.92259093924046
 71
     1
 72
     5
  1
{\fPMingLiU|b0|i0|c136|p54;\C2;\U+6838 \U+51C6}
 73
     1
 44
1.0
1001
AcDbBlockRepETag
1070
     1
1071
       99
1005
0
  0
TEXT
  5
3C4
330
2
100
AcDbEntity
  8
图层1
 62
     2
100
AcDbText
 10
9101.932041623475
 20
1916.756514240497
 30
0.0
 40
0.7069983840552205
  1
30 ~
  7
ROMANS
100
AcDbText
1001
AcDbBlockRepETag
1070
     1
1071
      103
1005
0
  0
TEXT
  5
3C5
330
2
100
AcDbEntity
  8
图层1
 62
     2
100
AcDbText
 10
9103.256881951196
 20
1913.287083456084
 30
0.0
 40
0.7069983840552205
  1
DIM
  7
ROMANS
100
AcDbText
1001
AcDbBlockRepETag
1070
     1
1071
      104
1005
0
  0
LINE
  5
3C6
330
2
100
AcDbEntity
  8
图层1
100
AcDbLine
 10
9106.894557106548
 20
1923.260686522791
 30
0.0
 11
9106.894557106548
 21
1912.583777057593
 31
0.0
1001
AcDbBlockRepETag
1070
     1
1071
      105
1005
0
  0
LINE
  5
3C7
330
2
100
AcDbEntity
  8
图层1
100
AcDbLine
 10
9101.709902290147
 20
1924.992215630745
 30
0.0
 11
9101.709902290147
 21
1912.583777057593
 31
0.0
1001
AcDbBlockRepETag
1070
     1
1071
      106
1005
0
  0
TEXT
  5
3C8
330
2
100
AcDbEntity
  8
图层1
 62
     2
100
AcDbText
 10
9102.847879241368
 20
1915.240308702613
 30
0.0
 40
0.7069983840552205
  1
Angle
  7
ROMANS
100
AcDbText
1001
AcDbBlockRepETag
1070
     1
1071
      107
1005
0
  0
LINE
  5
3C9
330
2
100
AcDbEntity
  8
图层1
100
AcDbLine
 10
9101.709902290147
 20
1915.586310494099
 30
0.0
 11
9041.838589242212
 21
1915.586310494099
 31
0.0
1001
AcDbBlockRepETag
1070
     1
1071
      108
1005
0
  0
TEXT
  5
3CA
330
2
100
AcDbEntity
  8
图层1
 62
     2
100
AcDbText
 10
9101.125663515233
 20
1918.614942367583
 30
0.0
 40
0.7069983840552205
  1
 20 ~ 30
  7
ROMANS
100
AcDbText
1001
AcDbBlockRepETag
1070
     1
1071
      109
1005
0
  0
TEXT
  5
3CB
330
2
100
AcDbEntity
  8
图层1
 62
     2
100
AcDbText
 10
9101.438084458141
 20
1922.170229669793
 30
0.0
 40
0.7069983840552205
  1
 0 ~ 10
  7
ROMANS
100
AcDbText
1001
AcDbBlockRepETag
1070
     1
1071
      110
1005
0
  0
TEXT
  5
3CC
330
2
100
AcDbEntity
  8
图层1
 62
     2
100
AcDbText
 10
9100.968305571793
 20
1920.419513988898
 30
0.0
 40
0.7069983840552205
  1
 10 ~ 20
  7
ROMANS
100
AcDbText
1001
AcDbBlockRepETag
1070
     1
1071
      111
1005
0
  0
LINE
  5
3CD
330
2
100
AcDbEntity
  8
图层1
 48
0.1
100
AcDbLine
 10
9101.709902290147
 20
1921.155027616401
 30
0.0
 11
9091.828902695111
 21
1921.155027616401
 31
0.0
1001
AcDbBlockRepETag
1070
     1
1071
      112
1005
0
  0
LINE
  5
3CE
330
2
100
AcDbEntity
  8
图层1
100
AcDbLine
 10
9101.709902290147
 20
1918.370669055251
 30
0.0
 11
9041.838589242212
 21
1918.370669055251
 31
0.0
1001
AcDbBlockRepETag
1070
     1
1071
      113
1005
0
  0
MTEXT
  5
3CF
330
2
100
AcDbEntity
  8
图层1
100
AcDbMText
 10
9095.581397253964
 20
1913.934208730927
 30
0.0
 40
0.7069983840552205
 41
14.83038101662465
 71
     1
 72
     5
  1
{\C2;APPROVE}
  7
ROMANS
 73
     1
 44
1.0
1001
AcDbBlockRepETag
1070
     1
1071
      114
1005
0
  0
LINE
  5
3D0
330
2
100
AcDbEntity
  8
图层1
100
AcDbLine
 10
9100.42099188861
 20
1921.155027616401
 30
0.0
 11
9041.838589242212
 21
1921.155027616401
 31
0.0
1001
AcDbBlockRepETag
1070
     1
1071
      115
1005
0
  0
MTEXT
  5
3D1
330
2
100
AcDbEntity
  8
0
 62
     0
 48
0.05
100
AcDbMText
 10
9148.885086800378
 20
1922.448446822237
 30
0.0
 40
2.368041802801879
 41
49.1986182634514
 71
     1
 72
     5
  1
{\fSimSun|b0|i0|c134|p2;\C1;ASAHI OPTICS LIMITED}
  7
ROMANC
 73
     1
 44
1.0
1001
AcDbBlockRepETag
1070
     1
1071
      116
1005
0
  0
HATCH
  5
3D2
330
2
100
AcDbEntity
  8
dim
 62
     1
 48
0.05
100
AcDbHatch
 10
0.0
 20
0.0
 30
0.0
210
0.0
220
0.0
230
1.0
  2
SOLID
 70
     1
 71
     0
 91
        2
 92
        7
 72
     0
 73
     1
 93
        4
 10
9145.783123279775
 20
1921.282219730994
 10
9148.202156326343
 20
1920.059173539073
 10
9145.783123279775
 20
1923.685747343142
 10
9143.364090233211
 20
1920.059173539074
 97
        0
 92
        7
 72
     0
 73
     1
 93
        4
 10
9143.287753577194
 20
1919.662179601992
 10
9145.783123279775
 20
1919.662179601992
 10
9148.278492982354
 20
1919.662179601992
 10
9145.783123279775
 20
1920.746106705547
 97
        0
 75
     0
 76
     1
 47
0.1612569124928189
 98
        2
 10
9145.806903045309
 20
1921.801872835937
 10
9145.636690445199
 20
1920.207097775316
450
        0
451
        0
460
0.0
461
0.0
452
        1
462
1.0
453
        2
463
0.0
 63
     5
421
      255
463
1.0
 63
     7
421
 16777215
470
LINEAR
1001
ACAD
1010
0.0
1020
0.0
1030
0.0
1001
AcDbBlockRepETag
1070
     1
1071
      117
1005
0
  0
LINE
  5
3D3
330
2
100
AcDbEntity
  8
dim
 62
     1
 48
0.05
100
AcDbLine
 10
9145.783123279775
 20
1923.685747343142
 30
0.0
 11
9143.364090233211
 21
1920.059173539073
 31
0.0
1001
AcDbBlockRepETag
1070
     1
1071
      118
1005
0
  0
LINE
  5
3D4
330
2
100
AcDbEntity
  8
dim
 62
     1
 48
0.05
100
AcDbLine
 10
9143.364090233211
 20
1920.059173539073
 30
0.0
 11
9145.783123279775
 21
1921.282219730994
 31
0.0
1001
AcDbBlockRepETag
1070
     1
1071
      119
1005
0
  0
LINE
  5
3D5
330
2
100
AcDbEntity
  8
dim
 62
     1
 48
0.05
100
AcDbLine
 10
9145.783123279775
 20
1920.746106705547
 30
0.0
 11
9143.287753577194
 21
1919.662179601992
 31
0.0
1001
AcDbBlockRepETag
1070
     1
1071
      120
1005
0
  0
LINE
  5
3D6
330
2
100
AcDbEntity
  8
dim
 62
     1
 48
0.05
100
AcDbLine
 10
9143.287753577194
 20
1919.662179601992
 30
0.0
 11
9145.783123279775
 21
1919.662179601992
 31
0.0
1001
AcDbBlockRepETag
1070
     1
1071
      121
1005
0
  0
LINE
  5
3D7
330
2
100
AcDbEntity
  8
dim
 62
     1
 48
0.05
100
AcDbLine
 10
9145.783123279775
 20
1923.685747343142
 30
0.0
 11
9148.202156326343
 21
1920.059173539073
 31
0.0
1001
AcDbBlockRepETag
1070
     1
1071
      122
1005
0
  0
LINE
  5
3D8
330
2
100
AcDbEntity
  8
dim
 62
     1
 48
0.05
100
AcDbLine
 10
9148.202156326343
 20
1920.059173539073
 30
0.0
 11
9145.783123279775
 21
1921.282219730994
 31
0.0
1001
AcDbBlockRepETag
1070
     1
1071
      123
1005
0
  0
LINE
  5
3D9
330
2
100
AcDbEntity
  8
dim
 62
     1
 48
0.05
100
AcDbLine
 10
9145.783123279775
 20
1920.746106705547
 30
0.0
 11
9148.278492982354
 21
1919.662179601992
 31
0.0
1001
AcDbBlockRepETag
1070
     1
1071
      124
1005
0
  0
LINE
  5
3DA
330
2
100
AcDbEntity
  8
dim
 62
     1
 48
0.05
100
AcDbLine
 10
9148.278492982354
 20
1919.662179601992
 30
0.0
 11
9145.783123279775
 21
1919.662179601992
 31
0.0
1001
AcDbBlockRepETag
1070
     1
1071
      125
1005
0
  0
MTEXT
  5
3DB
330
2
100
AcDbEntity
  8
dim
 62
     1
 48
0.05
100
AcDbMText
 10
9144.114347653815
 20
1919.466404960025
 30
0.0
 40
0.7415320871558989
 41
6.274148534654817
 71
     1
 72
     5
  1
{\fSTSong|b0|i0|c0|p2;ASAHI}
  7
ROMANC
 73
     1
 44
1.0
1001
AcDbBlockRepETag
1070
     1
1071
      126
1005
0
  0
MTEXT
  5
3DC
330
2
100
AcDbEntity
  8
图层1
 62
     4
100
AcDbMText
 10
9140.101486759608
 20
1923.793189168727
 30
0.0
 40
1.018077673039516
 41
8.136472806840668
 71
     1
 72
     5
  1
1:1
  7
ROMANS
 73
     1
 44
1.0
1001
AcDbBlockRepETag
1070
     1
1071
      130
1005
0
  0
MTEXT
  5
3DD
330
2
100
AcDbEntity
  8
图层1
100
AcDbMText
 10
9119.807639778775
 20
1924.031762728324
 30
0.0
 40
1.541186611830303
 41
7.532598155977771
 71
     1
 72
     5
  1
Transparency
 73
     1
 44
1.0
1001
AcDbBlockRepETag
1070
     1
1071
      131
1005
0
  0
INSERT
  5
3DE
330
2
100
AcDbEntity
  8
dim
 62
     0
100
AcDbBlockReference
  2
dfdfgrf
 10
8201.041320484653
 20
1839.517992139369
 30
0.0
 41
0.2150400000000445
 42
0.2150399999999308
 43
0.21504
  0
LINE
  5
3DF
330
2
100
AcDbEntity
  8
0
 48
0.05
100
AcDbLine
 10
9183.222009987451
 20
1931.772188327638
 30
0.0
 11
9183.222009987451
 21
1924.992215630757
 31
0.0
  0
LINE
  5
3E0
330
2
100
AcDbEntity
  8
0
  6
Continuous
 62
     7
370
    15
100
AcDbLine
 10
9177.553457382948
 20
1933.935286646819
 30
0.0
 11
9177.401182068619
 21
1933.783010130858
 31
0.0
  0
TEXT
  5
3E1
330
2
100
AcDbEntity
  8
hatch
100
AcDbText
 10
9157.988190711071
 20
1916.55010656161
 30
0.0
 40
1.172112222246736
  1
ASL280D40HXXLEDCOcaps
  7
cha1
100
AcDbText
1001
ACAD
1000
MTEXTBEGIN
1070
    73
1070
     1
1070
    44
1040
1.0
1070
    74
1070
     0
1000
MTEXTEND
  0
DIMENSION
  5
3E2
102
{ACAD_XDICTIONARY
360
3E3
102
}
102
{ACAD_REACTORS
330
3E4
102
}
330
2
100
AcDbEntity
  8
0
 48
0.05
100
AcDbDimension
  2
*D8
 10
9077.113450048306
 20
1992.855227131979
 30
0.0
 11
9077.113450048306
 21
1987.280283670506
 31
0.0
 71
     5
 42
11.14988692294719
  3
字高-7-7
100
AcDbAlignedDimension
 13
9107.537474514991
 23
1981.705340209031
 33
0.0
 14
9091.99514851153
 24
1992.855227131979
 34
0.0
 50
90.0
100
AcDbRotatedDimension
1001
ACAD
1000
DSTYLE
1002
{
1070
    40
1040
0.5
1070
    41
1040
2.0
1070
    42
1040
0.4997500000000001
1070
    44
1040
0.4997500000000001
1070
    47
1040
0.1
1070
    48
1040
0.1
1070
    78
1070
     8
1070
    79
1070
     2
1070
    90
1070
     1
1070
   140
1040
3.5
1070
   147
1040
-0.4997500000000001
1070
   176
1070
     7
1070
   177
1070
     7
1070
   178
1070
     7
1070
   179
1070
     2
1070
   289
1070
     0
1070
   345
1005
2C
1070
   346
1005
2C
1070
   347
1005
2C
1002
}
  0
DIMENSION
  5
3F6
102
{ACAD_XDICTIONARY
360
3F7
102
}
102
{ACAD_REACTORS
330
3F8
102
}
330
2
100
AcDbEntity
  8
0
 48
0.05
100
AcDbDimension
  2
*D9
 10
9127.566510578226
 20
1962.829977617284
 30
0.0
 11
9107.548040577141
 21
1962.829977617284
 31
0.0
 71
     5
 42
40.03694000217365
  3
字高-7-7
100
AcDbAlignedDimension
 13
9087.529570576053
 23
1970.206072888842
 33
0.0
 14
9127.566510578226
 24
1969.640079870285
 34
0.0
100
AcDbRotatedDimension
1001
ACAD
1000
DSTYLE
1002
{
1070
    40
1040
0.5
1070
    41
1040
2.0
1070
    42
1040
0.4997500000000001
1070
    44
1040
0.4997500000000001
1070
    47
1040
0.1
1070
    48
1040
0.1
1070
    78
1070
     8
1070
    79
1070
     2
1070
    90
1070
     1
1070
   140
1040
3.5
1070
   147
1040
-0.4997500000000001
1070
   176
1070
     7
1070
   177
1070
     7
1070
   178
1070
     7
1070
   179
1070
     2
1070
   289
1070
     0
1070
   345
1005
2C
1070
   346
1005
2C
1070
   347
1005
2C
1002
}
  0
DIMENSION
  5
40A
102
{ACAD_XDICTIONARY
360
40B
102
}
102
{ACAD_REACTORS
330
40C
102
}
330
2
100
AcDbEntity
  8
0
 48
0.05
100
AcDbDimension
  2
*D10
 10
9100.239725302936
 20
1951.72307906115
 30
0.0
 11
9100.239725302936
 21
1947.531190172263
 31
0.0
 71
     5
 42
1.058342968404986
  3
字高-7-7
100
AcDbAlignedDimension
 13
9106.659596234678
 23
1952.781422029555
 33
0.0
 14
9106.659596234678
 24
1951.72307906115
 34
0.0
 50
90.0
100
AcDbRotatedDimension
1001
ACAD
1000
DSTYLE
1002
{
1070
    40
1040
0.5
1070
    41
1040
2.0
1070
    42
1040
0.4997500000000001
1070
    44
1040
0.4997500000000001
1070
    47
1040
0.1
1070
    48
1040
0.1
1070
    78
1070
     8
1070
    79
1070
     2
1070
    90
1070
     1
1070
   140
1040
3.5
1070
   147
1040
-0.4997500000000001
1070
   176
1070
     7
1070
   177
1070
     7
1070
   178
1070
     7
1070
   179
1070
     2
1070
   289
1070
     0
1070
   345
1005
2C
1070
   346
1005
2C
1070
   347
1005
2C
1002
}
  0
DIMENSION
  5
41E
102
{ACAD_XDICTIONARY
360
41F
102
}
102
{ACAD_REACTORS
330
420
102
}
330
2
100
AcDbEntity
  8
0
 48
0.05
100
AcDbDimension
  2
*D11
 10
9131.20130964775
 20
1967.438202600676
 30
0.0
 11
9131.20130964775
 21
1963.188466489566
 31
0.0
 71
     5
 42
6.350703758758072
  3
字高-7-7
100
AcDbAlignedDimension
 13
9123.488498553816
 23
1973.788906359434
 33
0.0
 14
9122.82740634334
 24
1967.438202600676
 34
0.0
 50
90.0
100
AcDbRotatedDimension
1001
ACAD
1000
DSTYLE
1002
{
1070
    40
1040
0.5
1070
    41
1040
2.0
1070
    42
1040
0.4997500000000001
1070
    44
1040
0.4997500000000001
1070
    47
1040
0.1
1070
    48
1040
0.1
1070
    78
1070
     8
1070
    79
1070
     2
1070
    90
1070
     1
1070
   140
1040
3.5
1070
   147
1040
-0.4997500000000001
1070
   176
1070
     7
1070
   177
1070
     7
1070
   178
1070
     7
1070
   179
1070
     2
1070
   289
1070
     0
1070
   345
1005
2C
1070
   346
1005
2C
1070
   347
1005
2C
1002
}
  0
ENDSEC
  0
SECTION
  2
OBJECTS
  0
DICTIONARY
  5
B
330
0
100
AcDbDictionary
281
     1
  3
ACAD_2007HEADERVARS_RT
350
43F
  3
ACAD_COLOR
350
65
  3
ACAD_GROUP
350
50
  3
ACAD_LAYOUT
350
19
  3
ACAD_MATERIAL
350
D
  3
ACAD_MLINESTYLE
350
51
  3
ACAD_PLOTSETTINGS
350
52
  3
ACAD_PLOTSTYLENAME
350
A
  3
ACAD_TABLESTYLE
350
66
  3
ACAD_VISUALSTYLE
350
32
  3
AcDbVariableDictionary
350
43D
  0
DICTIONARY
  5
35
330
2F
100
AcDbDictionary
280
     1
281
     1
  0
DICTIONARY
  5
22
330
21
100
AcDbDictionary
280
     1
281
     1
  3
ACAD_LAYERFILTERS
360
23
  3
ACAD_LAYERSTATES
360
24
  3
ACLYDICTIONARY
360
25
  0
DICTIONARY
  5
7
330
6
100
AcDbDictionary
280
     1
281
     1
  3
ADSK_XREC_LAYER_RECONCILED
360
8
  0
DICTIONARY
  5
25B
330
25A
100
AcDbDictionary
280
     1
281
     1
  3
ADSK_XREC_LAYER_RECONCILED
360
25C
  0
DICTIONARY
  5
193
330
192
100
AcDbDictionary
280
     1
281
     1
  3
ADSK_XREC_LAYER_RECONCILED
360
194
  0
DICTIONARY
  5
3
330
2
100
AcDbDictionary
280
     1
281
     1
  3
ACAD_SORTENTS
360
433
  0
DICTIONARY
  5
46
330
45
100
AcDbDictionary
280
     1
281
     1
  3
ACAD_SORTENTS
360
432
  0
DICTIONARY
  5
3B
330
3A
100
AcDbDictionary
280
     1
281
     1
  0
DICTIONARY
  5
26A
330
269
100
AcDbDictionary
280
     1
281
     1
  0
DICTIONARY
  5
12A
330
129
100
AcDbDictionary
280
     1
281
     1
  3
ACAD_DIMASSOC
360
12B
  0
DICTIONARY
  5
13F
330
13E
100
AcDbDictionary
280
     1
281
     1
  3
ACAD_DIMASSOC
360
140
  0
DICTIONARY
  5
153
330
152
100
AcDbDictionary
280
     1
281
     1
  3
ACAD_DIMASSOC
360
154
  0
DICTIONARY
  5
167
330
166
100
AcDbDictionary
280
     1
281
     1
  3
ACAD_DIMASSOC
360
168
  0
DICTIONARY
  5
17B
330
17A
100
AcDbDictionary
280
     1
281
     1
  3
ACAD_DIMASSOC
360
17C
  0
DICTIONARY
  5
1F2
330
1F1
100
AcDbDictionary
280
     1
281
     1
  3
ACAD_MTEXT_RT
360
44A
  0
DICTIONARY
  5
1F5
330
1F4
100
AcDbDictionary
280
     1
281
     1
  3
ACAD_MTEXT_RT
360
44B
  0
DICTIONARY
  5
211
330
210
100
AcDbDictionary
280
     1
281
     1
  3
ACAD_MTEXT_RT
360
44C
  0
DICTIONARY
  5
21F
330
21E
100
AcDbDictionary
280
     1
281
     1
  3
ACAD_MTEXT_RT
360
44D
  0
DICTIONARY
  5
229
330
228
100
AcDbDictionary
280
     1
281
     1
  3
ACAD_MTEXT_RT
360
44E
  0
DICTIONARY
  5
22E
330
22D
100
AcDbDictionary
280
     1
281
     1
  3
ACAD_MTEXT_RT
360
44F
  0
DICTIONARY
  5
237
330
236
100
AcDbDictionary
280
     1
281
     1
  3
ACAD_MTEXT_RT
360
450
  0
DICTIONARY
  5
240
330
23F
100
AcDbDictionary
280
     1
281
     1
  3
ACAD_MTEXT_RT
360
451
  0
DICTIONARY
  5
243
330
242
100
AcDbDictionary
280
     1
281
     1
  3
ACAD_MTEXT_RT
360
452
  0
DICTIONARY
  5
246
330
245
100
AcDbDictionary
280
     1
281
     1
  3
ACAD_MTEXT_RT
360
453
  0
DICTIONARY
  5
249
330
248
100
AcDbDictionary
280
     1
281
     1
  3
ACAD_MTEXT_RT
360
454
  0
DICTIONARY
  5
36B
330
36A
100
AcDbDictionary
280
     1
281
     1
  3
ACAD_MTEXT_RT
360
455
  0
DICTIONARY
  5
36E
330
36D
100
AcDbDictionary
280
     1
281
     1
  3
ACAD_MTEXT_RT
360
456
  0
DICTIONARY
  5
38A
330
389
100
AcDbDictionary
280
     1
281
     1
  3
ACAD_MTEXT_RT
360
457
  0
DICTIONARY
  5
398
330
397
100
AcDbDictionary
280
     1
281
     1
  3
ACAD_MTEXT_RT
360
458
  0
DICTIONARY
  5
3A2
330
3A1
100
AcDbDictionary
280
     1
281
     1
  3
ACAD_MTEXT_RT
360
459
  0
DICTIONARY
  5
3A7
330
3A6
100
AcDbDictionary
280
     1
281
     1
  3
ACAD_MTEXT_RT
360
45A
  0
DICTIONARY
  5
3B0
330
3AF
100
AcDbDictionary
280
     1
281
     1
  3
ACAD_MTEXT_RT
360
45B
  0
DICTIONARY
  5
3B9
330
3B8
100
AcDbDictionary
280
     1
281
     1
  3
ACAD_MTEXT_RT
360
45C
  0
DICTIONARY
  5
3BC
330
3BB
100
AcDbDictionary
280
     1
281
     1
  3
ACAD_MTEXT_RT
360
45D
  0
DICTIONARY
  5
3BF
330
3BE
100
AcDbDictionary
280
     1
281
     1
  3
ACAD_MTEXT_RT
360
45E
  0
DICTIONARY
  5
3C2
330
3C1
100
AcDbDictionary
280
     1
281
     1
  3
ACAD_MTEXT_RT
360
45F
  0
DICTIONARY
  5
3E3
330
3E2
100
AcDbDictionary
280
     1
281
     1
  3
ACAD_DIMASSOC
360
3E4
  0
DICTIONARY
  5
3F7
330
3F6
100
AcDbDictionary
280
     1
281
     1
  3
ACAD_DIMASSOC
360
3F8
  0
DICTIONARY
  5
40B
330
40A
100
AcDbDictionary
280
     1
281
     1
  3
ACAD_DIMASSOC
360
40C
  0
DICTIONARY
  5
41F
330
41E
100
AcDbDictionary
280
     1
281
     1
  3
ACAD_DIMASSOC
360
420
  0
DICTIONARY
  5
43F
102
{ACAD_REACTORS
330
B
102
}
330
B
100
AcDbDictionary
281
     1
  3
DIMARCSYM
350
441
  3
DIMFXL
350
440
  3
DIMJOGANG
350
444
  3
DIMLTEX1
350
446
  3
DIMLTEX2
350
447
  3
DIMLTYPE
350
445
  3
DIMTFILL
350
442
  3
DIMTFILLCLR
350
443
  0
DICTIONARY
  5
65
102
{ACAD_REACTORS
330
B
102
}
330
B
100
AcDbDictionary
281
     1
  0
DICTIONARY
  5
50
102
{ACAD_REACTORS
330
B
102
}
330
B
100
AcDbDictionary
281
     1
  0
DICTIONARY
  5
19
102
{ACAD_REACTORS
330
B
102
}
330
B
100
AcDbDictionary
281
     1
  3
Model
350
18
  3
布局1
350
1D
  0
DICTIONARY
  5
D
102
{ACAD_REACTORS
330
B
102
}
330
B
100
AcDbDictionary
281
     1
  3
ByBlock
350
5C
  3
ByLayer
350
53
  3
Global
350
C
  0
DICTIONARY
  5
51
102
{ACAD_REACTORS
330
B
102
}
330
B
100
AcDbDictionary
281
     1
  3
Standard
350
68
  0
DICTIONARY
  5
52
102
{ACAD_REACTORS
330
B
102
}
330
B
100
AcDbDictionary
281
     1
  0
ACDBDICTIONARYWDFLT
  5
A
102
{ACAD_REACTORS
330
B
102
}
330
B
100
AcDbDictionary
281
     1
  3
Normal
350
9
100
AcDbDictionaryWithDefault
340
9
  0
DICTIONARY
  5
66
102
{ACAD_REACTORS
330
B
102
}
330
B
100
AcDbDictionary
281
     1
  3
Standard
350
69
  0
DICTIONARY
  5
32
102
{ACAD_REACTORS
330
B
102
}
330
B
100
AcDbDictionary
281
     1
  3
2dWireframe
350
31
  3
3dWireframe
350
6F
  3
Realistic
350
6C
  0
DICTIONARY
  5
43D
102
{ACAD_REACTORS
330
B
102
}
330
B
100
AcDbDictionary
281
     1
  3
CTABLESTYLE
350
43E
  0
DICTIONARY
  5
23
102
{ACAD_REACTORS
330
22
102
}
330
22
100
AcDbDictionary
281
     1
  0
DICTIONARY
  5
24
102
{ACAD_REACTORS
330
22
102
}
330
22
100
AcDbDictionary
281
     1
  0
DICTIONARY
  5
25
102
{ACAD_REACTORS
330
22
102
}
330
22
100
AcDbDictionary
281
     1
1001
ACAD
1000
<All
  0
XRECORD
  5
8
102
{ACAD_REACTORS
330
7
102
}
330
7
100
AcDbXrecord
280
     1
290
     1
  0
XRECORD
  5
25C
102
{ACAD_REACTORS
330
25B
102
}
330
25B
100
AcDbXrecord
280
     1
290
     1
  0
XRECORD
  5
194
102
{ACAD_REACTORS
330
193
102
}
330
193
100
AcDbXrecord
280
     1
290
     1
  0
SORTENTSTABLE
  5
433
102
{ACAD_REACTORS
330
3
102
}
330
3
100
AcDbSortentsTable
330
2
  0
SORTENTSTABLE
  5
432
102
{ACAD_REACTORS
330
46
102
}
330
46
100
AcDbSortentsTable
330
45
  0
DIMASSOC
  5
12B
102
{ACAD_REACTORS
330
12A
102
}
330
12A
100
AcDbDimAssoc
330
129
 90
        3
 70
     0
 71
     0
  1
AcDbOsnapPointRef
 72
     5
331
EB
 73
     2
 91
        0
 40
4.712388980384689
 10
0.0
 20
0.0
 30
0.0
 75
     0
  1
AcDbOsnapPointRef
 72
    10
331
D6
 73
     2
 91
        0
 40
0.127613585940736
 10
0.0
 20
0.0
 30
0.0
 75
     0
  0
DIMASSOC
  5
140
102
{ACAD_REACTORS
330
13F
102
}
330
13F
100
AcDbDimAssoc
330
13E
 90
        3
 70
     0
 71
     0
  1
AcDbOsnapPointRef
 72
     2
331
72
 73
     2
 91
        0
 40
0.5
 10
0.0
 20
0.0
 30
0.0
 75
     0
  1
AcDbOsnapPointRef
 72
    10
331
AF
 73
     2
 91
        0
 40
0.3407065331609991
 10
0.0
 20
0.0
 30
0.0
 75
     0
  0
DIMASSOC
  5
154
102
{ACAD_REACTORS
330
153
102
}
330
153
100
AcDbDimAssoc
330
152
 90
        3
 70
     0
 71
     0
  1
AcDbOsnapPointRef
 72
    13
331
F6
 73
     2
 91
        0
 40
0.0
 10
0.0
 20
0.0
 30
2.000000000000000E+50
 75
     0
  1
AcDbOsnapPointRef
 72
    10
331
9F
 73
     2
 91
        0
 40
0.9607609211472547
 10
0.0
 20
0.0
 30
0.0
 75
     0
  0
DIMASSOC
  5
168
102
{ACAD_REACTORS
330
167
102
}
330
167
100
AcDbDimAssoc
330
166
 90
        3
 70
     0
 71
     0
  1
AcDbOsnapPointRef
 72
     2
331
8C
 73
     2
 91
        0
 40
0.5
 10
0.0
 20
0.0
 30
0.0
 75
     0
  1
AcDbOsnapPointRef
 72
     1
331
AD
 73
     2
 91
        0
 40
1.0
 10
0.0
 20
0.0
 30
2.000000000000000E+50
 75
     0
  0
DIMASSOC
  5
17C
102
{ACAD_REACTORS
330
17B
102
}
330
17B
100
AcDbDimAssoc
330
17A
 90
        3
 70
     0
 71
     0
  1
AcDbOsnapPointRef
 72
    13
331
B8
 73
     2
 91
        0
 40
0.0
 10
0.0
 20
0.0
 30
2.000000000000000E+50
 75
     0
  1
AcDbOsnapPointRef
 72
    13
331
BF
 73
     2
 91
        0
 40
0.0
 10
0.0
 20
0.0
 30
2.000000000000000E+50
 75
     0
  0
XRECORD
  5
44A
102
{ACAD_REACTORS
330
1F2
102
}
330
1F2
100
AcDbXrecord
280
     1
 40
80778.0
  1
{\fPMingLiU|b0|i0|c136|p54;\C2;料 號}
  0
XRECORD
  5
44B
102
{ACAD_REACTORS
330
1F5
102
}
330
1F5
100
AcDbXrecord
280
     1
 40
80239.0
  1
{\fPMingLiU|b0|i0|c136|p54;\C2;品 名}
  0
XRECORD
  5
44C
102
{ACAD_REACTORS
330
211
102
}
330
211
100
AcDbXrecord
280
     1
 40
85856.0
  1
{\C2; \fPMingLiU|b0|i0|c136|p54;顏 色}
  0
XRECORD
  5
44D
102
{ACAD_REACTORS
330
21F
102
}
330
21F
100
AcDbXrecord
280
     1
 40
80171.0
  1
{\fPMingLiU|b0|i0|c136|p54;\C2;核 准}
  0
XRECORD
  5
44E
102
{ACAD_REACTORS
330
229
102
}
330
229
100
AcDbXrecord
280
     1
 40
81422.0
  1
{\fPMingLiU|b0|i0|c136|p54;\C2;材 質}
  0
XRECORD
  5
44F
102
{ACAD_REACTORS
330
22E
102
}
330
22E
100
AcDbXrecord
280
     1
 40
81054.0
  1
{\fPMingLiU|b0|i0|c136|p54;\C2;設 計}
  0
XRECORD
  5
450
102
{ACAD_REACTORS
330
237
102
}
330
237
100
AcDbXrecord
280
     1
 40
78011.0
  1
{\fPMingLiU|b0|i0|c136|p54;\C2;版次}
  0
XRECORD
  5
451
102
{ACAD_REACTORS
330
240
102
}
330
240
100
AcDbXrecord
280
     1
 40
79027.0
  1
{\fPMingLiU|b0|i0|c136|p54;\C2;日期}
  0
XRECORD
  5
452
102
{ACAD_REACTORS
330
243
102
}
330
243
100
AcDbXrecord
280
     1
 40
219960.0
  1
{\fPMingLiU|b0|i0|c136|p54;\C2;變　更　說　明}
  0
XRECORD
  5
453
102
{ACAD_REACTORS
330
246
102
}
330
246
100
AcDbXrecord
280
     1
 40
81434.0
  1
{\fPMingLiU|b0|i0|c136|p54;\C2;變 更}
  0
XRECORD
  5
454
102
{ACAD_REACTORS
330
249
102
}
330
249
100
AcDbXrecord
280
     1
 40
80171.0
  1
{\fPMingLiU|b0|i0|c136|p54;\C2;核 准}
  0
XRECORD
  5
455
102
{ACAD_REACTORS
330
36B
102
}
330
36B
100
AcDbXrecord
280
     1
 40
80778.0
  1
{\fPMingLiU|b0|i0|c136|p54;\C2;料 號}
  0
XRECORD
  5
456
102
{ACAD_REACTORS
330
36E
102
}
330
36E
100
AcDbXrecord
280
     1
 40
80239.0
  1
{\fPMingLiU|b0|i0|c136|p54;\C2;品 名}
  0
XRECORD
  5
457
102
{ACAD_REACTORS
330
38A
102
}
330
38A
100
AcDbXrecord
280
     1
 40
85856.0
  1
{\C2; \fPMingLiU|b0|i0|c136|p54;顏 色}
  0
XRECORD
  5
458
102
{ACAD_REACTORS
330
398
102
}
330
398
100
AcDbXrecord
280
     1
 40
80171.0
  1
{\fPMingLiU|b0|i0|c136|p54;\C2;核 准}
  0
XRECORD
  5
459
102
{ACAD_REACTORS
330
3A2
102
}
330
3A2
100
AcDbXrecord
280
     1
 40
81422.0
  1
{\fPMingLiU|b0|i0|c136|p54;\C2;材 質}
  0
XRECORD
  5
45A
102
{ACAD_REACTORS
330
3A7
102
}
330
3A7
100
AcDbXrecord
280
     1
 40
81054.0
  1
{\fPMingLiU|b0|i0|c136|p54;\C2;設 計}
  0
XRECORD
  5
45B
102
{ACAD_REACTORS
330
3B0
102
}
330
3B0
100
AcDbXrecord
280
     1
 40
78011.0
  1
{\fPMingLiU|b0|i0|c136|p54;\C2;版次}
  0
XRECORD
  5
45C
102
{ACAD_REACTORS
330
3B9
102
}
330
3B9
100
AcDbXrecord
280
     1
 40
79027.0
  1
{\fPMingLiU|b0|i0|c136|p54;\C2;日期}
  0
XRECORD
  5
45D
102
{ACAD_REACTORS
330
3BC
102
}
330
3BC
100
AcDbXrecord
280
     1
 40
219960.0
  1
{\fPMingLiU|b0|i0|c136|p54;\C2;變　更　說　明}
  0
XRECORD
  5
45E
102
{ACAD_REACTORS
330
3BF
102
}
330
3BF
100
AcDbXrecord
280
     1
 40
81434.0
  1
{\fPMingLiU|b0|i0|c136|p54;\C2;變 更}
  0
XRECORD
  5
45F
102
{ACAD_REACTORS
330
3C2
102
}
330
3C2
100
AcDbXrecord
280
     1
 40
80171.0
  1
{\fPMingLiU|b0|i0|c136|p54;\C2;核 准}
  0
DIMASSOC
  5
3E4
102
{ACAD_REACTORS
330
3E3
102
}
330
3E3
100
AcDbDimAssoc
330
3E2
 90
        3
 70
     0
 71
     0
  1
AcDbOsnapPointRef
 72
     1
331
2A0
 73
     2
 91
        0
 40
1.0
 10
0.0
 20
0.0
 30
2.000000000000000E+50
 75
     0
  1
AcDbOsnapPointRef
 72
    10
331
2A3
 73
     2
 91
        0
 40
0.8884635555255833
 10
0.0
 20
0.0
 30
0.0
 75
     0
  0
DIMASSOC
  5
3F8
102
{ACAD_REACTORS
330
3F7
102
}
330
3F7
100
AcDbDimAssoc
330
3F6
 90
        3
 70
     0
 71
     0
  1
AcDbOsnapPointRef
 72
     2
331
272
 73
     2
 91
        0
 40
0.5
 10
0.0
 20
0.0
 30
0.0
 75
     0
  1
AcDbOsnapPointRef
 72
    10
331
284
 73
     2
 91
        0
 40
0.6095303459302749
 10
0.0
 20
0.0
 30
0.0
 75
     0
  0
DIMASSOC
  5
40C
102
{ACAD_REACTORS
330
40B
102
}
330
40B
100
AcDbDimAssoc
330
40A
 90
        3
 70
     0
 71
     0
  1
AcDbOsnapPointRef
 72
    10
331
294
 73
     2
 91
        0
 40
0.4751421047993302
 10
0.0
 20
0.0
 30
0.0
 75
     0
  1
AcDbOsnapPointRef
 72
     8
331
291
 73
     2
 91
        0
 40
0.3110705497672045
 10
0.0
 20
0.0
 30
0.0
 75
     1
  1
AcDbOsnapPointRef
 72
    10
331
294
 73
     2
 91
        0
 40
0.4751421047993302
 10
0.0
 20
0.0
 30
0.0
 75
     0
  0
DIMASSOC
  5
420
102
{ACAD_REACTORS
330
41F
102
}
330
41F
100
AcDbDimAssoc
330
41E
 90
        3
 70
     0
 71
     0
  1
AcDbOsnapPointRef
 72
    10
331
281
 73
     2
 91
        0
 40
0.0809486230207508
 10
0.0
 20
0.0
 30
0.0
 75
     0
  1
AcDbOsnapPointRef
 72
    10
331
2E7
 73
     2
 91
        0
 40
0.1706161631006761
 10
0.0
 20
0.0
 30
0.0
 75
     0
  0
XRECORD
  5
441
102
{ACAD_REACTORS
330
43F
102
}
330
43F
100
AcDbXrecord
280
     1
 70
     1
  0
XRECORD
  5
440
102
{ACAD_REACTORS
330
43F
102
}
330
43F
100
AcDbXrecord
280
     1
 40
0.18
  0
XRECORD
  5
444
102
{ACAD_REACTORS
330
43F
102
}
330
43F
100
AcDbXrecord
280
     1
 40
1.570796326794896
  0
XRECORD
  5
446
102
{ACAD_REACTORS
330
43F
102
}
330
43F
100
AcDbXrecord
280
     1
340
2C
  0
XRECORD
  5
447
102
{ACAD_REACTORS
330
43F
102
}
330
43F
100
AcDbXrecord
280
     1
340
2C
  0
XRECORD
  5
445
102
{ACAD_REACTORS
330
43F
102
}
330
43F
100
AcDbXrecord
280
     1
340
2C
  0
XRECORD
  5
442
102
{ACAD_REACTORS
330
43F
102
}
330
43F
100
AcDbXrecord
280
     1
 70
     1
  0
XRECORD
  5
443
102
{ACAD_REACTORS
330
43F
102
}
330
43F
100
AcDbXrecord
280
     1
1004
1800000001000000000000C0000000000000000000000000
  0
LAYOUT
  5
18
102
{ACAD_REACTORS
330
19
102
}
330
19
100
AcDbPlotSettings
  1

  2
none_device
  4
ANSI_A_(8.50_x_11.00_Inches)
  6

 40
6.349999904632567
 41
19.04999923706055
 42
6.350006103515625
 43
19.04998779296875
 44
215.8999938964844
 45
279.3999938964844
 46
0.0
 47
0.0
 48
0.0
 49
0.0
140
0.0
141
0.0
142
1.0
143
2.584895464708373
 70
 11952
 72
     0
 73
     1
 74
     0
  7
monochrome.ctb
 75
     0
147
0.3868628397755418
 76
     0
 77
     2
 78
   300
148
0.0
149
0.0
100
AcDbLayout
  1
Model
 70
     1
 71
     0
 10
0.0
 20
0.0
 11
12.0
 21
9.0
 12
0.0
 22
0.0
 32
0.0
 14
0.0
 24
0.0
 34
0.0
 15
0.0
 25
0.0
 35
0.0
146
0.0
 13
0.0
 23
0.0
 33
0.0
 16
1.0
 26
0.0
 36
0.0
 17
0.0
 27
1.0
 37
0.0
 76
     0
330
2
331
30
  0
LAYOUT
  5
1D
102
{ACAD_XDICTIONARY
360
1E
102
}
102
{ACAD_REACTORS
330
19
102
}
330
19
100
AcDbPlotSettings
  1

  2
none_device
  4
ISO_A4_(210.00_x_297.00_MM)
  6

 40
7.5
 41
20.0
 42
7.5
 43
20.0
 44
210.0
 45
297.0
 46
0.0
 47
0.0
 48
0.0
 49
0.0
140
0.0
141
0.0
142
1.0
143
1.0
 70
   688
 72
     1
 73
     1
 74
     5
  7
monochrome.ctb
 75
    16
147
1.0
 76
     0
 77
     2
 78
   300
148
0.0
149
0.0
100
AcDbLayout
  1
布局1
 70
     1
 71
     1
 10
-20.0
 20
-7.5
 11
277.0
 21
202.5
 12
0.0
 22
0.0
 32
0.0
 14
25.69999999999999
 24
19.5
 34
0.0
 15
231.3
 25
175.5
 35
0.0
146
0.0
 13
0.0
 23
0.0
 33
0.0
 16
1.0
 26
0.0
 36
0.0
 17
0.0
 27
1.0
 37
0.0
 76
     0
330
1A
1001
ACAD_PSEXT
1000
无
1000
无
1000
不可用
1000
在选择新的绘图仪配置名称之前，不能打印该布局。
1070
     0
  0
MATERIAL
  5
5C
102
{ACAD_XDICTIONARY
360
5D
102
}
102
{ACAD_REACTORS
330
D
102
}
330
D
100
AcDbMaterial
  1
ByBlock
 72
     0
 73
     2
 43
0.0008202099737533
 43
0.0
 43
0.0
 43
0.0
 43
0.0
 43
0.0008202099737533
 43
0.0
 43
0.0
 43
0.0
 43
0.0
 43
1.0
 43
0.0
 43
0.0
 43
0.0
 43
0.0
 43
1.0
 77
     0
 78
     2
 47
0.0008202099737533
 47
0.0
 47
0.0
 47
0.0
 47
0.0
 47
0.0008202099737533
 47
0.0
 47
0.0
 47
0.0
 47
0.0
 47
1.0
 47
0.0
 47
0.0
 47
0.0
 47
0.0
 47
1.0
171
     0
172
     2
 49
0.0008202099737533
 49
0.0
 49
0.0
 49
0.0
 49
0.0
 49
0.0008202099737533
 49
0.0
 49
0.0
 49
0.0
 49
0.0
 49
1.0
 49
0.0
 49
0.0
 49
0.0
 49
0.0
 49
1.0
175
     0
176
     2
142
0.0008202099737533
142
0.0
142
0.0
142
0.0
142
0.0
142
0.0008202099737533
142
0.0
142
0.0
142
0.0
142
0.0
142
1.0
142
0.0
142
0.0
142
0.0
142
0.0
142
1.0
179
     0
270
     2
144
0.0008202099737533
144
0.0
144
0.0
144
0.0
144
0.0
144
0.0008202099737533
144
0.0
144
0.0
144
0.0
144
0.0
144
1.0
144
0.0
144
0.0
144
0.0
144
0.0
144
1.0
274
     2
147
0.0008202099737533
147
0.0
147
0.0
147
0.0
147
0.0
147
0.0008202099737533
147
0.0
147
0.0
147
0.0
147
0.0
147
1.0
147
0.0
147
0.0
147
0.0
147
0.0
147
1.0
  0
MATERIAL
  5
53
102
{ACAD_XDICTIONARY
360
54
102
}
102
{ACAD_REACTORS
330
D
102
}
330
D
100
AcDbMaterial
  1
ByLayer
 72
     0
 73
     2
 43
0.0008202099737533
 43
0.0
 43
0.0
 43
0.0
 43
0.0
 43
0.0008202099737533
 43
0.0
 43
0.0
 43
0.0
 43
0.0
 43
1.0
 43
0.0
 43
0.0
 43
0.0
 43
0.0
 43
1.0
 77
     0
 78
     2
 47
0.0008202099737533
 47
0.0
 47
0.0
 47
0.0
 47
0.0
 47
0.0008202099737533
 47
0.0
 47
0.0
 47
0.0
 47
0.0
 47
1.0
 47
0.0
 47
0.0
 47
0.0
 47
0.0
 47
1.0
171
     0
172
     2
 49
0.0008202099737533
 49
0.0
 49
0.0
 49
0.0
 49
0.0
 49
0.0008202099737533
 49
0.0
 49
0.0
 49
0.0
 49
0.0
 49
1.0
 49
0.0
 49
0.0
 49
0.0
 49
0.0
 49
1.0
175
     0
176
     2
142
0.0008202099737533
142
0.0
142
0.0
142
0.0
142
0.0
142
0.0008202099737533
142
0.0
142
0.0
142
0.0
142
0.0
142
1.0
142
0.0
142
0.0
142
0.0
142
0.0
142
1.0
179
     0
270
     2
144
0.0008202099737533
144
0.0
144
0.0
144
0.0
144
0.0
144
0.0008202099737533
144
0.0
144
0.0
144
0.0
144
0.0
144
1.0
144
0.0
144
0.0
144
0.0
144
0.0
144
1.0
274
     2
147
0.0008202099737533
147
0.0
147
0.0
147
0.0
147
0.0
147
0.0008202099737533
147
0.0
147
0.0
147
0.0
147
0.0
147
1.0
147
0.0
147
0.0
147
0.0
147
0.0
147
1.0
  0
MATERIAL
  5
C
102
{ACAD_XDICTIONARY
360
E
102
}
102
{ACAD_REACTORS
330
D
102
}
330
D
100
AcDbMaterial
  1
Global
 72
     0
 73
     2
 43
0.0008202099737533
 43
0.0
 43
0.0
 43
0.0
 43
0.0
 43
0.0008202099737533
 43
0.0
 43
0.0
 43
0.0
 43
0.0
 43
1.0
 43
0.0
 43
0.0
 43
0.0
 43
0.0
 43
1.0
 77
     0
 78
     2
 47
0.0008202099737533
 47
0.0
 47
0.0
 47
0.0
 47
0.0
 47
0.0008202099737533
 47
0.0
 47
0.0
 47
0.0
 47
0.0
 47
1.0
 47
0.0
 47
0.0
 47
0.0
 47
0.0
 47
1.0
171
     0
172
     2
 49
0.0008202099737533
 49
0.0
 49
0.0
 49
0.0
 49
0.0
 49
0.0008202099737533
 49
0.0
 49
0.0
 49
0.0
 49
0.0
 49
1.0
 49
0.0
 49
0.0
 49
0.0
 49
0.0
 49
1.0
175
     0
176
     2
142
0.0008202099737533
142
0.0
142
0.0
142
0.0
142
0.0
142
0.0008202099737533
142
0.0
142
0.0
142
0.0
142
0.0
142
1.0
142
0.0
142
0.0
142
0.0
142
0.0
142
1.0
179
     0
270
     2
144
0.0008202099737533
144
0.0
144
0.0
144
0.0
144
0.0
144
0.0008202099737533
144
0.0
144
0.0
144
0.0
144
0.0
144
1.0
144
0.0
144
0.0
144
0.0
144
0.0
144
1.0
274
     2
147
0.0008202099737533
147
0.0
147
0.0
147
0.0
147
0.0
147
0.0008202099737533
147
0.0
147
0.0
147
0.0
147
0.0
147
1.0
147
0.0
147
0.0
147
0.0
147
0.0
147
1.0
  0
MLINESTYLE
  5
68
102
{ACAD_REACTORS
330
51
102
}
330
51
100
AcDbMlineStyle
  2
STANDARD
 70
     0
  3

 62
   256
 51
90.0
 52
90.0
 71
     2
 49
0.5
 62
   256
  6
BYLAYER
 49
-0.5
 62
   256
  6
BYLAYER
  0
ACDBPLACEHOLDER
  5
9
102
{ACAD_REACTORS
330
A
102
}
330
A
  0
TABLESTYLE
  5
69
102
{ACAD_XDICTIONARY
360
6A
102
}
102
{ACAD_REACTORS
330
66
102
}
330
66
100
AcDbTableStyle
  3
Standard
 70
     0
 71
     0
 40
0.06
 41
0.06
280
     0
281
     0
  7
Standard
140
0.18
170
     2
 62
     0
 63
     7
283
     0
274
    -2
284
     1
 64
     0
275
    -2
285
     1
 65
     0
276
    -2
286
     1
 66
     0
277
    -2
287
     1
 67
     0
278
    -2
288
     1
 68
     0
279
    -2
289
     1
 69
     0
  7
Standard
140
0.25
170
     5
 62
     0
 63
     7
283
     0
274
    -2
284
     1
 64
     0
275
    -2
285
     1
 65
     0
276
    -2
286
     1
 66
     0
277
    -2
287
     1
 67
     0
278
    -2
288
     1
 68
     0
279
    -2
289
     1
 69
     0
  7
Standard
140
0.18
170
     5
 62
     0
 63
     7
283
     0
274
    -2
284
     1
 64
     0
275
    -2
285
     1
 65
     0
276
    -2
286
     1
 66
     0
277
    -2
287
     1
 67
     0
278
    -2
288
     1
 68
     0
279
    -2
289
     1
 69
     0
  0
VISUALSTYLE
  5
31
102
{ACAD_XDICTIONARY
360
33
102
}
102
{ACAD_REACTORS
330
32
102
}
330
32
100
AcDbVisualStyle
  2
2dWireframe
 70
     4
 71
     0
 72
     2
 73
     0
 90
        0
 40
-0.6
 41
-30.0
 62
     5
 63
     7
 74
     1
 91
        4
 64
     7
 65
   257
 75
     1
175
     1
 42
1.0
 92
        0
 66
   257
 43
1.0
 76
     1
 77
     6
 78
     2
 67
     7
 79
     5
170
     0
171
     0
290
     0
174
     0
 93
        1
 44
0.0
173
     0
291
     0
 45
0.0
1001
ACAD
1000
AcDbSavedByObjectVersion
1070
     0
  0
VISUALSTYLE
  5
6F
102
{ACAD_XDICTIONARY
360
70
102
}
102
{ACAD_REACTORS
330
32
102
}
330
32
100
AcDbVisualStyle
  2
3dWireframe
 70
     5
 71
     0
 72
     2
 73
     0
 90
        0
 40
-0.6
 41
-30.0
 62
     5
 63
     7
 74
     1
 91
        4
 64
     7
 65
   257
 75
     1
175
     1
 42
1.0
 92
        0
 66
   257
 43
1.0
 76
     1
 77
     6
 78
     2
 67
     7
 79
     5
170
     0
171
     0
290
     0
174
     0
 93
        1
 44
0.0
173
     0
291
     0
 45
0.0
1001
ACAD
1000
AcDbSavedByObjectVersion
1070
     0
  0
VISUALSTYLE
  5
6C
102
{ACAD_XDICTIONARY
360
6D
102
}
102
{ACAD_REACTORS
330
32
102
}
330
32
100
AcDbVisualStyle
  2
Realistic
 70
     8
 71
     2
 72
     2
 73
     0
 90
        0
 40
-0.6
 41
-30.0
 62
     5
 63
     7
 74
     1
 91
        0
 64
     7
 65
   257
 75
     1
175
     1
 42
1.0
 92
        8
 66
     8
 43
1.0
 76
     1
 77
     6
 78
     2
 67
     7
 79
     5
170
     0
171
     0
290
     0
174
     0
 93
       13
 44
0.0
173
     0
291
     0
 45
0.0
1001
ACAD
1000
AcDbSavedByObjectVersion
1070
     0
  0
DICTIONARYVAR
  5
43E
102
{ACAD_REACTORS
330
43D
102
}
330
43D
100
DictionaryVariables
280
     0
  1
STANDARD
  0
DICTIONARY
  5
1E
330
1D
100
AcDbDictionary
280
     1
281
     1
  3
ADSK_XREC_LAYOUTTHUMBNAIL
360
1F
  0
DICTIONARY
  5
5D
330
5C
100
AcDbDictionary
280
     1
281
     1
  3
ACAD_XREC_ROUNDTRIP
360
5E
  3
BUMPTILE
360
5F
  3
DIFFUSETILE
360
60
  3
OPACITYTILE
360
61
  3
REFLECTIONTILE
360
62
  3
REFRACTIONTILE
360
63
  3
SPECULARTILE
360
64
  0
DICTIONARY
  5
54
330
53
100
AcDbDictionary
280
     1
281
     1
  3
ACAD_XREC_ROUNDTRIP
360
55
  3
BUMPTILE
360
56
  3
DIFFUSETILE
360
57
  3
OPACITYTILE
360
58
  3
REFLECTIONTILE
360
59
  3
REFRACTIONTILE
360
5A
  3
SPECULARTILE
360
5B
  0
DICTIONARY
  5
E
330
C
100
AcDbDictionary
280
     1
281
     1
  3
ACAD_XREC_ROUNDTRIP
360
F
  3
BUMPTILE
360
10
  3
DIFFUSETILE
360
11
  3
OPACITYTILE
360
12
  3
REFLECTIONTILE
360
13
  3
REFRACTIONTILE
360
14
  3
SPECULARTILE
360
15
  0
DICTIONARY
  5
6A
330
69
100
AcDbDictionary
280
     1
281
     1
  3
ACAD_ROUNDTRIP_2008_TABLESTYLE_CELLSTYLEMAP
360
6B
  3
ACAD_XREC_ROUNDTRIP
360
449
  0
DICTIONARY
  5
33
330
31
100
AcDbDictionary
280
     1
281
     1
  3
ACAD_XREC_ROUNDTRIP
360
34
  0
DICTIONARY
  5
70
330
6F
100
AcDbDictionary
280
     1
281
     1
  3
ACAD_XREC_ROUNDTRIP
360
71
  0
DICTIONARY
  5
6D
330
6C
100
AcDbDictionary
280
     1
281
     1
  3
ACAD_XREC_ROUNDTRIP
360
6E
  0
XRECORD
  5
1F
102
{ACAD_REACTORS
330
1E
102
}
330
1E
100
AcDbXrecord
280
     1
310
28000000B40000007F00000001000800000000004C59000000000000000000000001000000000000FFFFFF0000000000FFFFFF000000000000000000000000000000000000000000000000000000000000000000330000006600000099000000CC000000FF00000000330000333300006633000099330000CC330000FF3300
310
0000660000336600006666000099660000CC660000FF66000000990000339900006699000099990000CC990000FF99000000CC000033CC000066CC000099CC0000CCCC0000FFCC000000FF000033FF000066FF000099FF0000CCFF0000FFFF000000003300330033006600330099003300CC003300FF003300003333003333
310
33006633330099333300CC333300FF33330000663300336633006666330099663300CC663300FF66330000993300339933006699330099993300CC993300FF99330000CC330033CC330066CC330099CC3300CCCC3300FFCC330000FF330033FF330066FF330099FF3300CCFF3300FFFF330000006600330066006600660099
310
006600CC006600FF00660000336600333366006633660099336600CC336600FF33660000666600336666006666660099666600CC666600FF66660000996600339966006699660099996600CC996600FF99660000CC660033CC660066CC660099CC6600CCCC6600FFCC660000FF660033FF660066FF660099FF6600CCFF6600
310
FFFF660000009900330099006600990099009900CC009900FF00990000339900333399006633990099339900CC339900FF33990000669900336699006666990099669900CC669900FF66990000999900339999006699990099999900CC999900FF99990000CC990033CC990066CC990099CC9900CCCC9900FFCC990000FF99
310
0033FF990066FF990099FF9900CCFF9900FFFF99000000CC003300CC006600CC009900CC00CC00CC00FF00CC000033CC003333CC006633CC009933CC00CC33CC00FF33CC000066CC003366CC006666CC009966CC00CC66CC00FF66CC000099CC003399CC006699CC009999CC00CC99CC00FF99CC0000CCCC0033CCCC0066CC
310
CC0099CCCC00CCCCCC00FFCCCC0000FFCC0033FFCC0066FFCC0099FFCC00CCFFCC00FFFFCC000000FF003300FF006600FF009900FF00CC00FF00FF00FF000033FF003333FF006633FF009933FF00CC33FF00FF33FF000066FF003366FF006666FF009966FF00CC66FF00FF66FF000099FF003399FF006699FF009999FF00CC
310
99FF00FF99FF0000CCFF0033CCFF0066CCFF0099CCFF00CCCCFF00FFCCFF0000FFFF0033FFFF0066FFFF0099FFFF00CCFFFF00FFFFFF00000000000D0D0D001A1A1A00282828003535350043434300505050005D5D5D006B6B6B00787878008686860093939300A1A1A100AEAEAE00BBBBBB00C9C9C900D6D6D600E4E4E400
310
F1F1F100FFFFFF0000000000000000000000000000000000000000000000000000000000000000000000000000000000E2E2E2E2E2E2E2E2E2E2E2E2E2E2E2E2E2E2E2E2E2E2E2E2E2E2E2E2E2E2E2E2E2E2E2E2E2E2E2E2E2E2E2E2E2E2E2E2E2E2E2E2E2E2E2E2E2E2E2E2E2E2E2E2E2E2E2E2E2E2E2E2E2E2E2E2E2E2E2
310
E2E2E2E2E2E2E2E2E2E2E2E2E2E2E2E2E2E2E2E2E2E2E2E2E2E2E2E2E2E2E2E2E2E2E2E2E2E2E2E2E2E2E2E2E2E2E2E2E2E2E2E2E2E2E2E2E2E2E2E2E2E2E2E2E2E2E2E2E2E2E2E2E2E2E2E2E2E2E2E2E2E2E2E2E2E2E2E2E2E2E2E2E2E2E2E2E2E2E2E2E2E2F5F5F5F5F5F5F5F5F5F5F5F5F5F5F5F5F5F5F5F5F5F5F5F5F5
310
F5F5F5F5F5F5F5F5F5F5F5F5F5F5F5F5F5F5F5F5F5F5F5F5F5F5F5F5F5F5F5F5F5F5F5F5F5F5F5F5F5F5F5F5F5F5F5F5F5F5F5F5F5F5F5F5F5F5F5F5F5F5F5F5F5F5F5F5F5F5F5F5F5F5F5F5F5F5F5F5F5F5F5F5F5F5F5F5F5F5F5F5F5F5F5F5F5F5F5F5F5F5F5F5F5F5F5F5F5F5F5F5F5F5F5F5F5F5F5F5F5F5F5F5F5F5F5
310
F5F5F5F5F5F5F5F5F5F5F5F5F5F5F5F5F5F5F5F5F5F5F5F5F5E2E2E2F5F5F5F5F5F5F5F5F5F5F5F5F5F5F5F5F5F5F5F5F5F5F5F5F5F5F5F5F5F5F5F5F5F5F5F5F5F5F5F5F5F5F5F5F5F5F5F5F5F5F5F5F5F5F5F5F5F5F5F5F5F5F5F5F5F5F5F5F5F5F5F5F5F5F5F5F5F5F5F5F5F5F5F5F5F5F5F5F5F5F5F5F5F5F5F5F5F5F5
310
F5F5F5F5F5F5F5F5F5F5F5F5F5F5F5F5F5F5F5F5F5F5F5F5F5F5F5F5F5F5F5F5F5F5F5F5F5F5F5F5F5F5F5F5F5F5F5F5F5F5F5F5F5F5F5F5F5F5F5F5F5F5F5F5F5F5F5F5F5F5F5F5F5F5F5F5F5F5E2E2E2F5F5F5F5F5F5F5F5F5F5F5F5F5F5F5F5F5F5F5F5F5F5F5F5F5F5F5F5F5F5F5F5F5F5F5F5F5F5F5F5F5F5F5F5F5F5
310
F5F5F5F5F5F5F5F5F5F5F5F5F5F5F5F5F5F5F5F5F5F5F5F5F5F5F5F5F5F5F5F5F5F5F5F5F5F5F5F5F5F5F5F5F5F5F5F5F5F5F5F5F5F5F5F5F5F5F5F5F5F5F5F5F5F5F5F5F5F5F5F5F5F5F5F5F5F5F5F5F5F5F5F5F5F5F5F5F5F5F5F5F5F5F5F5F5F5F5F5F5F5F5F5F5F5F5F5F5F5F5F5F5F5F5F5F5F5F5F5F5F5F5F5F5F5F5
310
F5F5F5F5E2E2E2F5F5F5F5F5F5F5F5F5F5F5F5F5F5F5F5F5F5F5F5F5F5F5F5F5F5F5F5F5F5F5F5F5F5F5F5F5F5F5F5F5F5F5F5F5F5F5F5F5F5F5F5F5F5F5F5F5F5F5F5F5F5F5F5F5F5F5F5F5F5F5F5F5F5F5F5F5F5F5F5F5F5F5F5F5F5F5F5F5F5F5F5F5F5F5F5F5F5F5F5F5F5F5F5F5F5F5F5F5F5F5F5F5F5F5F5F5F5F5F5
310
F5F5F5F5F5F5F5F5F5F5F5F5F5F5F5F5F5F5F5F5F5F5F5F5F5F5F5F5F5F5F5F5F5F5F5F5F5F5F5F5F5F5F5F5F5F5F5F5F5F5F5F5F5F5F5F5F5E2E2E2F5F5F5F5F5F5F5F5F5F5F5E2E2E2E2E2E2E2E2E2F5F5F5F5F5F5F5F5F5E2E2E2E2E2E2E2E2E2E2E2E2E2E2E2E2F5F5F5F5F5F5F5F5F5F5E2E2E2E2E2E2E2E2E2E2E2E2
310
E2E2E2E2F5F5F5F5F5F5F5F5F5E2E2E2E2E2E2E2E2E2E2E2E2E2E2E2E2E2F5F5F5F5F5F5F5F5F5E2E2E2E2E2E2E2E2E2E2E2E2E2E2E2E2F5F5F5F5F5F5F5F5F5F5E2E2E2E2E2E2E2E2E2E2E2E2E2E2E2E2F5F5F5F5F5F5F5F5F5E2E2E2E2E2E2E2E2E2F5F5F5F5F5F5F5F5F5F5F5E2E2E2F5F5F5F5F5F5F5F5F5F5F5E2F5F5
310
F5F5F5F5F5F5F5F5F5F5F5F5F5F5F5F5F5F5F5F5F5F5F5F5F5F5F5F5F5F5F5F5F5F5F5F5F5F5F5F5F5F5F5F5F5F5F5F5F5F5F5F5F5F5F5F5F5F5F5F5F5F5F5F5F5F5F5F5F5F5F5F5F5F5F5F5F5F5F5F5F5F5F5F5F5F5F5F5F5F5F5F5F5F5F5F5F5F5F5F5F5F5F5F5F5F5F5F5F5F5F5F5F5F5F5F5F5F5F5F5F5F5F5F5F5F5F5
310
F5F5F5F5F5F5F5F5F5F5F5F5F5F5F5F5F5F5F5F5F5F5F5F5E2F5F5F5F5F5F5F5F5F5F5F5E2E2E2F5F5F5F5F5F5F5F5F5F5F5E2F5F5F5F5F5F5F5F5F5F5F5F5F5F5F5F5F5F5F5F5F5F5F5F5F5F5F5F5F5F5F5F5F5F5F5F5F5F5F5F5F5F5F5F5F5F5F5F5F5F5F5F5F5F5F5F5F5F5F5F5F5F5F5F5F5F5F5F5F5F5F5F5F5F5F5F5
310
F5F5F5F5F5F5F5F5F5F5F5F5F5F5F5F5F5F5F5F5F5F5F5F5F5F5F5F5F5F5F5F5F5F5F5F5F5F5F5F5F5F5F5F5F5F5F5F5F5F5F5F5F5F5F5F5F5F5F5F5F5F5F5F5F5F5F5F5F5F5F5F5F5F5F5F5F5E2F5F5F5F5F5F5F5F5F5F5F5E2E2E2F5F5F5F5F5F5F5F5F5F5F5E2F5F5F5F5F5F5F5F5F5F5F5F5F5F5F5F5F5F5F5F5F5F5F5
310
F5F5F5F5F5F5F5F5F5F5F5F5F5F5F5F5F5F5F5F5F5F5F5F5F5F5F5F5F5F5F5F5F5F5F5F5F5F5F5F5F5F5F5F5F5F5F5F5F5F5F5F5F5F5F5F5F5F5F5F5F5F5F5F5F5F5F5F5F5F5F5F5F5F5F5F5F5F5F5F5F5F5F5F5F5F5F5F5F5F5F5F5F5F5F5F5F5F5F5F5F5F5F5F5F5F5F5F5F5F5F5F5F5F5F5F5F5F5F5F5F5F5F5F5F5F5F5
310
F5F5F5E2F5F5F5F5F5F5F5F5F5F5F5E2E2E2F5F5F5F5F5F5F5F5F5F5F5E2F5F5F5F5F5F5F5F5F5F5F5F5F5F5F5F5F5F5F5F5F5F5F5F5F5F5F5F5F5F5F5F5F5F5F5F5F5F5F5F5F5F5F5F5F5F5F5F5F5F5F5F5F5F5F5F5F5F5F5F5F5F5F5F5F5F5F5F5F5F5F5F5F5F5F5F5F5F5F5F5F5F5F5F5F5F5F5F5F5F5F5F5F5F5F5F5F5
310
F5F5F5F5F5F5F5F5F5F5F5F5F5F5F5F5F5F5F5F5F5F5F5F5F5F5F5F5F5F5F5F5F5F5F5F5F5F5F5F5F5F5F5F5F5F5F5F5F5F5F5F5F5F5F5F5E2F5F5F5F5F5F5F5F5F5F5F5E2E2E2F5F5F5F5F5F5F5F5F5F5F5E2F5F5F5F5F5F5F5F5F5F5F5F5F5F5F5F5F5F5F5F5F5F5F5F5F5F5F5F5F5F5F5F5F5F5F5F5F5F5F5F5F5F5F5F5
310
F5F5F5F5F5F5F5F5F5F5F5F5F5F5F5F5F5F5F5F5F5F5F5F5F5F5F5F5F5F5F5F5F5F5F5F5F5F5F5F5F5F5F5F5F5F5F5F5F5F5F5F5F5F5F5F5F5F5F5F5F5F5F5F5F5F5F5F5F5F5F5F5F5F5F5F5F5F5F5F5F5F5F5F5F5F5F5F5F5F5F5F5F5F5F5F5F5F5F5F5F5F5F5F5F5F5F5F5F5E2F5F5F5F5F5F5F5F5F5F5F5E2E2E2F5F5F5
310
F5F5F5F5F5F5F5F5E2F5F5F5F5F5F5F5F5F5F5F5F5F5F5F5F5F5F5F5F5F5F5F5F5F5F5F5F5F5F5F5F5F5F5F5F5F5F5F5F5F5F5F5F5F5F5F5F5F5F5F5F5F5F5F5F5F5F5F5F5F5F5F5F5F5F5F5F5F5F5F5F5F5F5F5F5F5F5F5F5F5F5F5F5F5F5F5F5F5F5F5F5F5F5F5F5F5F5F5F5F5F5F5F5F5F5F5F5F5F5F5F5F5F5F5F5F5F5
310
F5F5F5F5F5F5F5F5F5F5F5F5F5F5F5F5F5F5F5F5F5F5F5F5F5F5F5F5F5F5F5F5F5F5F5E2F5F5F5F5F5F5F5F5F5F5F5E2E2E2F5F5F5F5F5F5F5F5F5F5F5E2F5F5F5F5F5F5F5F5F5F5F5F5F5F5F5F5F5F5F5F5F5F5F5F5F5F5F5F5F5F5F5F5F5F5F5F5F5F5F5F5F5F5F5F5F5F5F5F5F5F5F5F5F5F5F5F5F5F5F5F5F5F5F5F5F5
310
F5F5F5F5F5F5F5F5F5F5F5F5F5F5F5F5F5F5F5F5F5F5F5F5F5F5F5F5F5F5F5F5F5F5F5F5F5F5F5F5F5F5F5F5F5F5F5F5F5F5F5F5F5F5F5F5F5F5F5F5F5F5F5F5F5F5F5F5F5F5F5F5F5F5F5F5F5F5F5F5F5F5F5F5F5F5F5F5E2F5F5F5F5F5F5F5F5F5F5F5E2E2E2F5F5F5F5F5F5F5F5F5F5F5F5F5F5F5F5F5F5F5F5F5F5F5F5
310
F5F5F5F5F5F5F5F5F5F5F5F5F5F5F5F5F5F5F5F5F5F5F5F5F5F5F5F5F5F5F5F5F5F5F5F5F5F5F5F5F5F5F5F5F5F5F5F5F5F5F5F5F5F5F5F5F5F5F5F5F5F5F5F5F5F5F5F5F5F5F5F5F5F5F5F5F5F5F5F5F5F5F5F5F5F5F5F5F5F5F5F5F5F5F5F5F5F5F5F5F5F5F5F5F5F5F5F5F5F5F5F5F5F5F5F5F5F5F5F5F5F5F5F5F5F5F5
310
F5F5F5F5F5F5F5F5F5F5F5F5F5F5F5F5F5F5F5F5F5F5F5F5F5F5E2E2E2F5F5F5F5F5F5F5F5F5F5F5F5F5F5F5F5F5F5F5F5F5F5F5F5F5F5F5F5F5F5F5F5F5F5F5F5F5F5F5F5F5F5F5F5F5F5F5F5F5F5F5F5F5F5F5F5F5F5F5F5F5F5F5F5F5F5F5F5F5F5F5F5F5F5F5F5F5F5F5F5F5F5F5F5F5F5F5F5F5F5F5F5F5F5F5F5F5F5
310
F5F5F5F5F5F5F5F5F5F5F5F5F5F5F5F5F5F5F5F5F5F5F5F5F5F5F5F5F5F5F5F5F5F5F5F5F5F5F5F5F5F5F5F5F5F5F5F5F5F5F5F5F5F5F5F5F5F5F5F5F5F5F5F5F5F5F5F5F5F5F5F5F5F5F5F5F5F5F5E2E2E2F5F5F5F5F5F5F5F5F5F5F5F5F5F5F5F5F5F5F5F5F5F5F5F5F5F5F5F5F5F5F5F5F5F5F5F5F5F5F5F5F5F5F5F5F5
310
F5F5F5F5F5F5F5F5F5F5F5F5F5F5F5F5F5F5F5F5F5F5F5F5F5F5F5F5F5F5F5F5F5F5F5F5F5F5F5F5F5F5F5F5F5F5F5F5F5F5F5F5F5F5F5F5F5F5F5F5F5F5F5F5F5F5F5F5F5F5F5F5F5F5F5F5F5F5F5F5F5F5F5F5F5F5F5F5F5F5F5F5F5F5F5F5F5F5F5F5F5F5F5F5F5F5F5F5F5F5F5F5F5F5F5F5F5F5F5F5F5F5F5F5F5F5F5
310
F5F5F5F5F5E2E2E2F5F5F5F5F5F5F5F5F5F5F5F5F5F5F5F5F5F5F5F5F5F5F5F5F5F5F0F0F0F0F0F0F0F0F0F0F0F0F0F0F0F0F0F0F0F0F0F0F0F0F0F0F0F0F0F0F0F0F0F0F0F0F0F0F0F0F0F0F0F0F0F0F0F0F0F0F0F0F0F0F0F0F0F0F0F0F0F0F0F0F0F0F0F0F0F0F0F0F0F0F0F0F0F0F0F0F0F0F0F0F0F0F0F0F0F0F0F0F0
310
F0F0F0F0F0F0F0F0F0F0F0F0F0F0F0F0F0F0F0F0F0F0F0F0F0F0F0F0F0F0F0F0F5F5F5F5F5F5F5F5F5F5F5F5F5F5F5F5F5F5F5F5F5F5F5F5F5F5E2E2E2F5F5F5F5F5F5F5F5F5F5F5F5F5F5F5F5F5F5F5F5F5F5F5F5F5F5F0F5F5F5F5F5F5F5F5F5F5F5F5F5F5F5F5F5F5F5F5F5F5F5F5F5F5F5F5F5F5F5F5F5F5F5F5F5F5F5
310
F5F5F5F5F5F5F5F5F5F5F5F5F5F5F5F5F5F5F5F5F5F5F5F5F5F5F5F5F5F5F5F5F5F5F5F5F5F5F5F5F5F5F5F5F5F5F5F5F5F5F5F5F5F5F5F5F5F5F5F5F5F5F5F5F5F5F5F5F5F5F5F5F5F5F5F5F5F5F5F5F5F5F5F5F0F5F5F5F5F5F5F5F5F5F5F5F5F5F5F5F5F5F5F5F5F5F5F5F5F5F5E2E2E2F5F5F5F5F5F5F5F5F5F5F5F5F5
310
F5F5F5F5F5F5F5F5F5F5F5F5F5F0F5F5F5F5F5F5F5F5F5F5F5F5F5F5F5F5F5F5F5F5F5F5F5F5F5F5F5F5F5F5F5F5F5F5F5F5F5F5F5F5F5F5F5F5F5F5F5F5F5F5F5F5F5F5F5F5F5F5F5F5F5F5F5F5F5F5F5F5F5F5F5F5F5F5F5F5F5F5F5F5F5F5F5F5F5F5F5F5F5F5F5F5F5F5F5F5F5F5F5F5F5F5F5F5F5F5F5F5F5F5F5F5F5
310
F5F5F5F5F5F5F5F5F5F5F0F5F5F5F5F5F5F5F5F5F5F5F5F5F5F5F5F5F5F5F5F5F5F5F5F5F5E2E2E2F5F5F5F5F5F5F5F5F5F5F5F5F5F5F5F5F5F5F5F5F5F5F5F5F5F5F0F5F5F5F5F5F5F5F5F5F5F5F5F5F5F5F5F5F5F5F5F5F5F5F5F5F5F5F5F5F5F5F5F5F5F5F5F5F5F5F5F5F5F5F5F5F5F5F5F5F5F5F5F5F5F5F5F5F5F5F5
310
F5F5F5F5F5F5F5F5F5F5F5F5F5F5F5F5F5F5F5F5F5F5F5F5F5F5F5F5F5F5F5F5F5F5F5F5F5F5F5F5F5F5F5F5F5F5F5F5F5F5F5F5F5F5F5F5F5F5F5F5F5F5F5F0F5F5F5F5F5F5F5F5F5F5F5F5F5F5F5F5F5F5F5F5F5F5F5F5F5F5E2E2E2F5F5F5F5F5F5F5F5F5F5F5F5F5F5F5F5F5F5F5F5F5F5F5F5F5F5F0F5F5F5F5F5F5F5
310
F5F5F5F5F5F5F5F5F5F5F5F5F5F5F5F5F5F5F5F5F5F5F5F5F5F5F5F5F5F5F5F5F5F5F5F5F5F5F5F5F5F5F5F5F5F5F5F5F5F5F5F5F5F5F5F5F5F5F5F5F5F5F5F5F5F5F5F5F5F5F5F5F5F5F5F5F5F5F5F5F5F5F5F5F5F5F5F5F5F5F5F5F5F5F5F5F5F5F5F5F5F5F5F5F5F5F5F5F5F5F5F5F5F5F5F5F0F5F5F5F5F5F5F5F5F5F5
310
F5F5F5F5F5F5F5F5F5F5F5F5F5F5F5F5E2E2E2F5F5F5F5F5F5F5F5F5F5F5E2F5F5F5F5F5F5F5F5F5F5F5F5F5F5F0F5F5F5F5F5F5F5F5F5F5F5F5F5F5F5F5F5F5F5F5F5F5F5F5F5F5F5F5F5F5F5F5F5F5F5F5F5F5F5F5F5F5F5F5F5F5F5F5F5F5F5F5F5F5F5F5F5F5F5F5F5F5F5F5F5F5F5F5F5F5F5F5F5F5F5F5F5F5F5F5F5
310
F5F5F5F5F5F5F5F5F5F5F5F5F5F5F5F5F5F5F5F5F5F5F5F5F5F5F5F5F5F5F5F5F5F5F5F5F5F5F5F5F5F5F0F5F5F5F5F5F5F5F5F5F5F5F5F5F5E2F5F5F5F5F5F5F5F5F5F5F5E2E2E2F5F5F5F5F5F5F5F5F5F5F5E2F5F5F5F5F5F5F5F5F5F5F5F5F5F5F0F5F5F5F5F5F5F5F5F5F5F5F5F5F5F5F5F5F5F5F5F5F5F5F5F5F5F5F5
310
F5F5F5F5F5F5F5F5F5F5F5F5F5F5F5F5F5F5F5F5F5F5F5F5F5F5F5F5F5F5F5F5F5F5F5F5F5F5F5F5F5F5F5F5F5F5F5F5F5F5F5F5F5F5F5F5F5F5F5F5F5F5F5F5F5F5F5F5F5F5F5F5F5F5F5F5F5F5F5F5F5F5F5F5F5F5F5F5F5F5F5F5F5F5F5F0F5F5F5F5F5F5F5F5F5F5F5F5F5F5E2F5F5F5F5F5F5F5F5F5F5F5E2E2E2F5F5
310
F5F5F5F5F5F5F5F5F5E2F5F5F5F5F5F5F5F5F5F5F5F5F5F5F0F5F5F5F5F5F5F5F5F5F5F5F5F5F5F5F5F5F5F5F5F5F5F5F5F5F5F5F5F5F5F5F5F5F5F5F5F5F5F5F5F5F5F5F5F5F5F5F5F5F5F5F5F5F5F5F5F5F5F5F5F5F5F5F5F5F5F5F5F5F5F5F5F5F5F5F5F5F5F5F5F5F5F5F5F5F5F5F5F5F5F5F5F5F5F5F5F5F5F5F5F5F5
310
F5F5F5F5F5F5F5F5F5F5F5F5F5F5F5F5F5F5F5F5F5F0F5F5F5F5F5F5F5F5F5F5F5F5F5F5E2F5F5F5F5F5F5F5F5F5F5F5E2E2E2F5F5F5F5F5F5F5F5F5F5F5E2F5F5F5F5F5F5F5F5F5F5F5F5F5F5F0F5F5F5F5F5F5F5F5F5F5F5F5F5F5F5F5F5F5F5F5F5F5F5F5F5F5F5F5F5F5F5F5F5F5F5F5F5F5F5F5F5F5F5F5F5F5F5F5F5
310
F5F5F5F5F5F5F5F5F5F5F5F5F5F5F5F5F5F5F5F5F5F5F5F5F5F5F5F5F5F5F5F5F5F5F5F5F5F5F5F5F5F5F5F5F5F5F5F5F5F5F5F5F5F5F5F5F5F5F5F5F5F5F5F5F5F5F5F5F5F5F5F5F5F5F0F5F5F5F5F5F5F5F5F5F5F5F5F5F5E2F5F5F5F5F5F5F5F5F5F5F5E2E2E2F5F5F5F5F5F5F5F5F5F5F5E2F5F5F5F5F5F5F5F5F5F5F5
310
F5F5F5F0F5F5F5F5F5F5F5F5F5F5F5F5F5F5F5F5F5F5F5F5F5F5F5F5F5F5F5F5F5F5F5F5F5F5F5F5F5F5F5F5F5F5F5F5F5F5F5F5F5F5F5F5F5F5F5F5F5F5F5F5F5F5F5F5F5F5F5F5F5F5F5F5F5F5F5F5F5F5F5F5F5F5F5F5F5F5F5F5F5F5F5F5F5F5F5F5F5F5F5F5F5F5F5F5F5F5F5F5F5F5F5F5F5F5F5F5F5F5F5F5F5F5F5
310
F0F5F5F5F5F5F5F5F5F5F5F5F5F5F5E2F5F5F5F5F5F5F5F5F5F5F5E2E2E2F5F5F5F5F5F5F5F5F5F5F5E2F5F5F5F5F5F5F5F5F5F5F5F5F5F5F0F5F5F5F5F5F5F5F5F5F5F5F5F5F5F5F5F5F5F5F5F5F5F5F5F5F5F5F5F5F5F5F5F5F5F5F5F5F5F5F5F5F5F5F5F5F5F5F5F5F5F5F5F5F5F5F5F5F5F5F5F5F5F5F5F5F5F5F5F5F5
310
F5F5F5F5F5F5F5F5F5F5F5F5F5F5F5F5F5F5F5F5F5F5F5F5F5F5F5F5F5F5F5F5F5F5F5F5F5F5F5F5F5F5F5F5F5F5F5F5F5F5F5F5F5F0F5F5F5F5F5F5F5F5F5F5F5F5F5F5E2F5F5F5F5F5F5F5F5F5F5F5E2E2E2F5F5F5F5F5F5F5F5F5F5F5E2F5F5F5F5F5F5F5F5F5F5F5F5F5F5F02D2D2D2D2D2D2D2D2D2D2D2D2D2DC3C3C3
310
C3C3C3C3C3C3C3C3C3C3C3C3C3C3C3C3C32D2D2D2D2D2D2D2D2D2D2D2D2D2D2D2D2D2D2D2D2D2D2D2D2D2D2D2D2D2D2D2D2D2D2D2D2D2D2D2D2D2D2D2D2D2D2D2D2D2D2D2D2D2D2D2D2D2D2D2D2D2D2D2D2D2D2D2D2D2D2D2D2D2D2D2D2D2D2D2D2D2D2D2D2D2D2D2D2DF0F5F5F5F5F5F5F5F5F5F5F5F5F5F5E2F5F5F5F5F5
310
F5F5F5F5F5F5E2E2E2F5F5F5F5F5F5F5F5F5F5F5E2F5F5F5F5F5F5F5F5F5F5F5F5F5F5F0F0F5F5F5F5F0F5F5F5F5F5F5F5F5C3F0F0F0F0F0F0F0F0F0F0F0F0F0F0F0F0F0F0C3F5F5F5F5F5F5F5F5F5F5F5F5F5F5F5F5F5F5F5F5F5F5F5F5F5F5F5F5F5F5F5F5F5F5F5F5F5F5F5F5F5F5F5F5F5F5F5F5F5F5F5F5F5F5F5F5F5
310
F5F5F5F5F5F5F5F5F5F5F5F5F5F5F5F5F5F5F5F5F5F5F5F5F5F5F5F5F5F5F5F5F0F5F5F5F5F5F5F5F5F5F5F5F5F5F5E2F5F5F5F5F5F5F5F5F5F5F5E2E2E2F5F5F5F5F5F5F5F5F5F5F5E2F5F5F5F5F5F5F5F5F5F5F5F5F5F5F0F02D2D2D2DF0F5F5F5F5F5F5F5F5C3F0F0F0F0F0F0F0F0F0F0F0F0F0F0F0F0F0F0C3F5F5F5F5
310
F5F5F5F5F5F5F5F5F5F5F5F5F5F5F5F5F5F5F5F5F5F5F5F5F5F5F5F5F5F5F5F5F5F5F5F5F5F5F5F5F5F5F5F5F5F5F5F5F5F5F5F5F5F5F5F5F5F5F5F5F5F5F5F5F5F5F5F5F5F5F5F5F5F5F5F5F5F5F5F5F5F5F5F5F5F0F5F5F5F5F5F5F5F5F5F5F5F5F5F5E2F5F5F5F5F5F5F5F5F5F5F5E2E2E2F5F5F5F5F5F5F5F5F5F5F5E2
310
F5F5F5F5F5F5F5F5F5F5F5F5F5F5F0F02D2D2D2DF0F5F5F5F5F5F5F5F5C328F0F0F0F0F0F0F0F0F0F0F0F0F0F0F0F0F0C3F5F5F5F5F5F5F5F5F5F5F5F5F5F5F5F5F5F5F5F5F5F5F5F5F5F5F5F5F5F5F5F5F5F5F5F5F5F5F5F5F5F5F5F5F5F5F5F5F5F5F5F5F5F5F5F5F5F5F5F5F5F5F5F5F5F5F5F5F5F5F5F5F5F5F5F5F5F5
310
F5F5F5F5F5F5F5F5F5F5F5F0F5F5F5F5F5F5F5F5F5F5F5F5F5F5E2F5F5F5F5F5F5F5F5F5F5F5E2E2E2F5F5F5F5F5F5F5F5F5F5F5E2F5F5F5F5F5F5F5F5F5F5F5F5F5F5F0F02D2D2D2D404040404040404040C340406128C340282828F040E24040E2E2F0F0C3F5F5F5F5F5F5F5F5F5F5F5F5F5F5F5F5F5F5F5F5F5F5F5F5F5
310
F5F5F5F5F5F5F5F5F5F5F5F5F5F5F5F5F5F5F5F5F5F5F5F5F5F5F5F5F5F5F5F5F5F5F5F5F5F5F5F5F5F5F5F5F5F5F5F5F5F5F5F5F5F5F5F5F5F5F5F5F5F5F5F5F0F5F5F5F5F5F5F5F5F5F5F5F5F5F5E2F5F5F5F5F5F5F5F5F5F5F5E2E2E2F5F5F5F5F5F5F5F5F5F5F5E2F5F5F5F5F5F5F5F5F5F5F5F5F5F5F0F02D2D2D2D40
310
F0F0F0F0F0F0F040C3284040282828404028F040282840E2E2F5F5C3F5F5F5F5F5F5F5F5F5F5F5F5F5F5F5F5F5F5F5F5F5F5F5F5F5F5F5F5F5F5F5F5F5F5F5F5F5F5F5F5F5F5F5F5F5F5F5F5F5F5F5F5F5F5F5F5F5F5F5F5F5F5F5F5F5F5F5F5F5F5F5F5F5F5F5F5F5F5F5F5F5F5F5F5F5F5F5F5F5F0F5F5F5F5F5F5F5F5F5
310
F5F5F5F5F5E2F5F5F5F5F5F5F5F5F5F5F5E2E2E2F5F5F5F5F5F5F5F5F5F5F5E2F5F5F5F5F5F5F5F5F5F5F5F5F5F5F0F02D2D2D2D404061BE4028F04040C34040BE2828402828282840E2E2F5BEBEE2E2C3F5F5F5F5F5F5F5F5F5F5F5F5F5F5F5F5F5F5F5F5F5F5F5F5F5F5F5F5F5F5F5F5F5F5F5F5F5F5F5F5F5F5F5F5F5F5
310
F5F5F5F5F5F5F5F5F5F5F5F5F5F5F5F5F5F5F5F5F5F5F5F5F5F5F5F5F5F5F5F5F5F5F5F5F5F5F5F5F5F5F5F0F5F5F5F5F5F5F5F5F5F5F5F5F5F5E2F5F5F5F5F5F5F5F5F5F5F5E2E2E2F5F5F5F5F5F5F5F5F5F5F5E2F5F5F5F5F5F5F5F5F5F5F5F5F5F5F0F02D2D2D2D404061BE4028F02D40C3402840284040402840284040
310
F5F54040E2E2C3F5F5F5F5F5F5F5F5F5F5F5F5F5F5F5F5F5F5F5F5F5F5F5F5F5F5F5F5F5F5F5F5F5F5F5F5F5F5F5F5F5F5F5F5F5F5F5F5F5F5F5F5F5F5F5F5F5F5F5F5F5F5F5F5F5F5F5F5F5F5F5F5F5F5F5F5F5F5F5F5F5F5F5F5F5F5F5F5F5F0F5F5F5F5F5F5F5F5F5F5F5F5F5F5E2F5F5F5F5F5F5F5F5F5F5F5E2E2E2F5
310
F5F5F5F5F5F5F5F5F5F5E2F5F5F5F5F5F5F5F5F5F5F5F5F5F5F0F02D2D2D2D40F040404040E22D40C340404028402828F540284028284028E2E2E2C3F5F5F5F5F5F5F5F5F5F5F5F5F5F5F5F5F5F5F5F5F5F5F5F5F5F5F5F5F5F5F5F5F5F5F5F5F5F5F5F5F5F5F5F5F5F5F5F5F5F5F5F5F5F5F5F5F5F5F5F5F5F5F5F5F5F5F5
310
F5F5F5F5F5F5F5F5F5F5F5F5F5F5F5F5F5F5F5F5F5F5F0F5F5F5F5F5F5F5F5F5F5F5F5F5F5E2F5F5F5F5F5F5F5F5F5F5F5E2E2E2F5F5F5F5F5F5F5F5F5F5F5F5F5F5F5F5F5F5F5F5F5F5F5F5F5F5F0F02D2D2D2D40F0162D16ECE22D40C32840404040404028282840BE2840BEBE2D2DC3F5F5F5F5F5F5F5F5F5F5F5F5F5F5
310
F5F5F5F5F5F5F5F5F5F5F5F5F5F5F5F5F5F5F5F5F5F5F5F5F5F5F5F5F5F5F5F5F5F5F5F5F5F5F5F5F5F5F5F5F5F5F5F5F5F5F5F5F5F5F5F5F5F5F5F5F5F5F5F5F5F5F5F5F5F5F5F5F5F5F5F0F5F5F5F5F5F5F5F5F5F5F5F5F5F5F5F5F5F5F5F5F5F5F5F5F5F5E2E2E2F5F5F5F5F5F5F5F5F5F5F5F5F5F5F5F5F5F5F5F5F5F5
310
F5F5F5F5F0F02D2D2D2D402840284040C32D40C34028402840282828E2284028284040E2E2E2C3F5F5F5F5F5F5F5F5F5F5F5F5F5F5F5F5F5F5F5F5F5F5F5F5F5F5F5F5F5F5F5F5F5F5F5F5F5F5F5F5F5F5F5F5F5F5F5F5F5F5F5F5F5F5F5F5F5F5F5F5F5F5F5F5F5F5F5F5F5F5F5F5F5F5F5F5F5F5F5F5F5F5F5F5F5F5F5F5
310
F5F0F5F5F5F5F5F5F5F5F5F5F5F5F5F5F5F5F5F5F5F5F5F5F5F5F5F5E2E2E2F5F5F5F5F5F5F5F5F5F5F5F5F5F5F5F5F5F5F5F5F5F5F5F5F5F5F0F02D2D2D2D40F028E21628EC2D40C34028402828282840F0F0BE28282828BEE2E2C3F5F5F5F5F5F5F5F5F5F5F5F5F5F5F5F5F5F5F5F5F5F5F5F5F5F5F5F5F5F5F5F5F5F5F5
310
F5F5F5F5F5F5F5F5F5F5F5F5F5F5F5F5F5F5F5F5F5F5F5F5F5F5F5F5F5F5F5F5F5F5F5F5F5F5F5F5F5F5F5F5F5F5F5F5F5F5F5F5F5F5F0F5F5F5F5F5F5F5F5F5F5F5F5F5F5F5F5F5F5F5F5F5F5F5F5F5F5E2E2E2F5F5F5F5F5F5F5F5F5F5F5F5F5F5F5F5F5F5F5F5F5F5F5F5F5F5F0F0F5F5F5F540F040284040E22D40C340
310
40402840402840F028404028404040E2F0C3F5F5F5F5F5F5F5F5F5F5F5F5F5F5F5F5F5F5F5F5F5F5F5F5F5F5F5F5F5F5F5F5F5F5F5F5F5F5F5F5F5F5F5F5F5F5F5F5F5F5F5F5F5F5F5F5F5F5F5F5F5F5F5F5F5F5F5F5F5F5F5F5F5F5F5F5F5F5F5F5F5F5F5F5F5F5F5F5F5F0F5F5F5F5F5F5F5F5F5F5F5F5F5F5F5F5F5F5F5
310
F5F5F5F5F5F5F5E2E2E2F5F5F5F5F5F5F5F5F5F5F5F5F5F5F5F5F5F5F5F5F5F5F5F5F5F5F0F0F5F5F5F5404040404040404040C3F0282828282D2D2D2D2D2D2828282828F0F0C3F5F5F5F5F5F5F5F5F5F5F5F5F5F5F5F5F5F5F5F5F5F5F5F5F5F5F5F5F5F5F5F5F5F5F5F5F5F5F5F5F5F5F5F5F5F5F5F5F5F5F5F5F5F5F5F5
310
F5F5F5F5F5F5F5F5F5F5F5F5F5F5F5F5F5F5F5F5F5F5F5F5F5F5F5F5F5F5F5F5F5F0F5F5F5F5F5F5F5F5F5F5F5F5F5F5F5F5F5F5F5F5F5F5F5F5F5F5E2E2E2F5F5F5F5F5F5F5F5F5F5F5F5F5F5F5F5F5F5F5F5F5F5F5F5F5F5F0F0F5F5F5F5F0F5F5F5F5F5F5F5F5C3C3C3C3C3C3C3C3C3C3C3C3C3C3C3C3C3C3C3C3F5F5F5
310
F5F5F5F5F5F5F5F5F5F5F5F5F5F5F5F5F5F5F5F5F5F5F5F5F5F5F5F5F5F5F5F5F5F5F5F5F5F5F5F5F5F5F5F5F5F5F5F5F5F5F5F5F5F5F5F5F5F5F5F5F5F5F5F5F5F5F5F5F5F5F5F5F5F5F5F5F5F5F5F5F5F5F5F5F5F5F0F5F5F5F5F5F5F5F5F5F5F5F5F5F5F5F5F5F5F5F5F5F5F5F5F5F5E2E2E2F5F5F5F5F5F5F5F5F5F5F5
310
F5F5F5F5F5F5F5F5F5F5F5F5F5F5F5F02D2D2D2D2D2D2D2D2D2D2D2D2D2D2D2D2D2D2D2D2D2D2D2D2D2D2D2D2D2D2D2D2D2D2D2D2D2D2D2D2D2D2D2D2D2D2D2D2D2D2DDCDCDCDCDCDCDCDCDCDCDCDCDCDCDCDCDCDCDCDCDCDCDCDCDCDCDCDCDCDCDCDCDCDCDCDCDC2D2D2D2D2D2D2D2D2D2D2D2D2D2D2D2D2D2D2D2D2D2D2D
310
2D2D2D2D2D2D2D2D2D2D2D2DF0F5F5F5F5F5F5F5F5F5F5F5F5F5F5F5F5F5F5F5F5F5F5F5F5F5F5E2E2E2F5F5F5F5F5F5F5F5F5F5F5F5F5F5F5F5F5F5F5F5F5F5F5F5F5F5F0DCDCDCDCDCF0F0F0F0F0F0F5F5F5F5F5F5F5F5F5F5F5F5F5F5F5F5F5F5F5F5F5F5F5F5F5F5F5F5F5F5F5F5F5F5F5F5F5F5F5F5F5F5F5F5F5F5F5
310
F5F5F5F5F5F5F5F5F5F5F5F5F5F5F5F5F5F5F5F5F5F5F5F5F5F5F5F5F5F5F5F5F5F5F5F5F5F5F5F5F5F5F5F5F5F5F5F5F5F5F5F5F5F5F5F5F5F5F5F5F5F5F5F5F5F0F5F5F5F5F5F5F5F5F5F5F5F5F5F5F5F5F5F5F5F5F5F5F5F5F5F5E2E2E2F5F5F5F5F5F5F5F5F5F5F5E2F5F5F5F5F5F5F5F5F5F5F5F5F5F5F0DCDCDCDCDC
310
F0F028F0F0F0F5F5F5F5F5F5F5F5F5F5F5F5F5F5F5F5F5F5F5F5F5F5F5F5F5F5F5F5F5F5F5F5F5F5F5F5F5F5F5F5F5F5F5F5F5F5F5F5F5F5F5F5F5F5F5F5F5F5F5F5F5F5F5F5F5F5F5F5F5F5F5F5F5F5F5F5F5F5F5F5F5F5F5F5F5F5F5F5F5F5F5F5F5F5F5F5F5F5F5F5F5F5F5F5F5F5F5F5F5F5F5F5F0F5F5F5F5F5F5F5F5
310
F5F5F5F5F5F5E2F5F5F5F5F5F5F5F5F5F5F5E2E2E2F5F5F5F5F5F5F5F5F5F5F5E2F5F5F5F5F5F5F5F5F5F5F5F5F5F5F0F0F5F5F5F5F0F5284028F0F5F5F5F5F5F5F5F5F5F5F5F5F5F5F5F5F5F5F5F5F5F5F5F5F5F5F5F5F5F5F5F5F5F5F5F5F5F5F5F5F5F5F5F5F5F5F5F5F5F5F5F5F5F5F5F5F5F5F5F5F5F5F5F5F5F5F5F5
310
F5F5F5F5F5F5F5F5F5F5F5F5F5F5F5F5F5F5F5F5F5F5F5F5F5F5F5F5F5F5F5F5F5F5F5F5F5F5F5F5F5F5F5F5F0F5F5F5F5F5F5F5F5F5F5F5F5F5F5E2F5F5F5F5F5F5F5F5F5F5F5E2E2E2F5F5F5F5F5F5F5F5F5F5F5E2F5F5F5F5F5F5F5F5F5F5F5F5F5F5F0DCDCDCDCDCF0F52840F5F0F5F5F5F5F5F5F5F5F5F5F5F5F5F5F5
310
F5F5F5F5F5F5F5F5F5F5F5F5F5F5F5F5F5F5F5F5F5F5F5F5F5F5F5F5F5F5F5F5F5F5F5F5F5F5F5F5F5F5F5F5F5F5F5F5F5F5F5F5F5F5F5F5F5F5F5F5F5F5F5F5F5F5F5F5F5F5F5F5F5F5F5F5F5F5F5F5F5F5F5F5F5F5F5F5F5F5F5F5F5F5F5F5F5F0F5F5F5F5F5F5F5F5F5F5F5F5F5F5E2F5F5F5F5F5F5F5F5F5F5F5E2E2E2
310
F5F5F5F5F5F5F5F5F5F5F5E2F5F5F5F5F5F5F5F5F5F5F5F5F5F5F0DCDCDCDCDCF0F54040F5F0F5F5F5F5F5F5F5F5F5F5F5F5F5F5F5F5F5F5F5F5F5F5F5F5F5F5F5F5F5F5F5F5F5F5F5F5F5F5F5F5F5F5F5F5F5F5F5F5F5F5F5F5F5F5F5F5F5F5F5F5F5F5F5F5F5F5F5F5F5F5F5F5F5F5F5F5F5F5F5F5F5F5F5F5F5F5F5F5F5
310
F5F5F5F5F5F5F5F5F5F5F5F5F5F5F5F5F5F5F5F5F5F5F5F0F5F5F5F5F5F5F5F5F5F5F5F5F5F5E2F5F5F5F5F5F5F5F5F5F5F5E2E2E2F5F5F5F5F5F5F5F5F5F5F5E2F5F5F5F5F5F5F5F5F5F5F5F5F5F5F0F0F5F5F5F5F0F5F0F0F5F0F5F5F5F5F5F5F5F5F5F5F5F5F5F5F5F5F5F5F5F5F5F5F5F5F5F5F5F5F5F5F5F5F5F5F5F5
310
F5F5F5F5F5F5F5F5F5F5F5F5F5F5F5F5F5F5F5F5F5F5F5F5F5F5F5F5F5F5F5F5F5F5F5F5F5F5F5F5F5F5F5F5F5F5F5F5F5F5F5F5F5F5F5F5F5F5F5F5F5F5F5F5F5F5F5F5F5F5F5F5F5F5F5F5F0F5F5F5F5F5F5F5F5F5F5F5F5F5F5E2F5F5F5F5F5F5F5F5F5F5F5E2E2E2F5F5F5F5F5F5F5F5F5F5F5E2F5F5F5F5F5F5F5F5F5
310
F5F5F5F5F5F0F0F5F5F5F5F0F0F028F0F0F5F5F5F5F5F5F5F5F5F5F5F5F5F5F5F5F5F5F5F5F5F5F5F5F5F5F5F5F5F5F5F5F5F5F5F5F5F5F5F5F5F5F5F5F5F5F5F5F5F5F5F5F5F5F5F5F5F5F5F5F5F5F5F5F5F5F5F5F5F5F5F5F5F5F5F5F5F5F5F5F5F5F5F5F5F5F5F5F5F5F5F5F5F5F5F5F5F5F5F5F5F5F5F5F5F5F5F5F5F5
310
F5F5F0F5F5F5F5F5F5F5F5F5F5F5F5F5F5E2F5F5F5F5F5F5F5F5F5F5F5E2E2E2F5F5F5F5F5F5F5F5F5F5F5E2F5F5F5F5F5F5F5F5F5F5F5F5F5F5F0282828282828282828282828282828282828282828282828282828282828282828282828282828282828282828282828282828282828282828282828282828282828DCDC
310
DCDCDCDCDCDCDCDCDCDCDCDCDCDCDCDCDCDCDCDCDCDCDCDCDCDCDCDCDCDCDCDCDCDCDC2828282828282828282828282828282828282828F0F5F5F5F5F5F5F5F5F5F5F5F5F5F5E2F5F5F5F5F5F5F5F5F5F5F5E2E2E2F5F5F5F5F5F5F5F5F5F5F5E2F5F5F5F5F5F5F5F5F5F5F5F5F5F5F0F0F5F5F5F5F0F5F5F5F5F5F5F5F5F5
310
F5F5F5F5F5F5F5F5F5F5F5F5F5F5F5F5F5F5F5F5F5F5F5F5F5F5F5F5F5F5F5F5F5F5F5F5F5F5F5F5F5F5F5F5F5F5F5F5F5F5F5F5F5F5F5F5F5F5F5F5F5F5F5F5F5F5F5F5F5F5F5F5F5F5F5F5F5F5F5F5F5F5F5F5F5F5F5F5F5F5F5F5F5F5F5F5F5F5F5F5F5F5F5F5F5F5F5F5F0F5F5F5F5F5F5F5F5F5F5F5F5F5F5E2F5F5F5
310
F5F5F5F5F5F5F5F5E2E2E2F5F5F5F5F5F5F5F5F5F5F5E2F5F5F5F5F5F5F5F5F5F5F5F5F5F5F0F0F5F5F5F5F0F5F5F5F5F5F5F5F5F5F5F5F5F5F5F5F5F5F5F5F5F5F5F5F5F5F5F5F5F5F5F5F5F5F5F5F5F5F5F5F5F5F5F5F5F5F5F5F5F5F5F5F5F5F5F5F5F5F5F5F5F5F5F5F5F5F5F5F5F5F5F5F5F5F5F5F5F5F5F5F5F5F5F5
310
F5F5F5F5F5F5F5F5F5F5F5F5F5F5F5F5F5F5F5F5F5F5F5F5F5F5F5F5F5F5F5F5F5F5F0F5F5F5F5F5F5F5F5F5F5F5F5F5F5E2F5F5F5F5F5F5F5F5F5F5F5E2E2E2F5F5F5F5F5F5F5F5F5F5F5E2F5F5F5F5F5F5F5F5F5F5F5F5F5F5F0F0F5F5F5F5F0F5F5F5F5F5F5F5F5F5F5F5F5F5F5F5F5F5F5F5F5F5F5F5F5F5F5F5F5F5F5
310
F5F5F5F5F5F5F5F5F5F5F5F5F5F5F5F5F5F5F5F5F5F5F5F5F5F5F5F5F5F5F5F5F5F5F5F5F5F5F5F5F5F5F5F5F5F5F5F5F5F5F5F5F5F5F5F5F5F5F5F5F5F5F5F5F5F5F5F5F5F5F5F5F5F5F5F5F5F5F5F5F5F5F5F5F5F5F5F0F5F5F5F5F5F5F5F5F5F5F5F5F5F5E2F5F5F5F5F5F5F5F5F5F5F5E2E2E2F5F5F5F5F5F5F5F5F5F5
310
F5E2F5F5F5F5F5F5F5F5F5F5F5F5F5F5F0F0F5F5F5F5F0F5F5F5F5F5F5F5F5F5F5F5F5F5F5F5F5F5F5F5F5F5F5F5F5F5F5F5F5F5F5F5F5F5F5F5F5F5F5F5F5F5F5F5F5F5F5F5F5F5F5F5F5F5F5F5F5F5F5F5F5F5F5F5F5F5F5F5F5F5F5F5F5F5F5F5F5F5F5F5F5F5F5F5F5F5F5F5F5F5F5F5F5F5F5F5F5F5F5F5F5F5F5F5F5
310
F5F5F5F5F5F5F5F5F5F5F5F5F5F0F5F5F5F5F5F5F5F5F5F5F5F5F5F5E2F5F5F5F5F5F5F5F5F5F5F5E2E2E2F5F5F5F5F5F5F5F5F5F5F5E2F5F5F5F5F5F5F5F5F5F5F5F5F5F5F0F0F5F5F5F5F0F0F0F0F0F0F0F0F5F5F5F5F5F5F5F5F5F5F5F5F5F5F5F5F5F5F5F5F5F5F5F5F5F5F5F5F5F5F5F5F5F5F5F5F5F5F5F5F5F5F5F5
310
F5F5F5F5F5F5F5F5F5F5F5F5F5F5F5F5F5F5F5F5F5F5F5F5F5F5F5F5F5F5F5F5F5F5F5F5F5F5F5F5F5F5F5F5F5F5F5F5F5F5F5F5F5F5F5F5F5F5F5F5F5F5F5F5F5F5F0F5F5F5F5F5F5F5F5F5F5F5F5F5F5E2F5F5F5F5F5F5F5F5F5F5F5E2E2E2F5F5F5F5F5F5F5F5F5F5F5E2F5F5F5F5F5F5F5F5F5F5F5F5F5F5F0F0282828
310
28F0F0F0F0F0F0F0F5F5F5F5F5F5F5F5F5F5F5F5F5F5F5F5F5F5F5F5F5F5F5F5F5F5F5F5F5F5F5F5F5F5F5F5F5F5F5F5F5F5F5F5F5F5F5F5F5F5F5F5F5F5F5F5F5F5F5F5F5F5F5F5F5F5F5F5F5F5F5F5F5F5F5F5F5F5F5F5F5F5F5F5F5F5F5F5F5F5F5F5F5F5F5F5F5F5F5F5F5F5F5F5F5F5F5F5F5F5F5F0F5F5F5F5F5F5F5
310
F5F5F5F5F5F5F5E2F5F5F5F5F5F5F5F5F5F5F5E2E2E2F5F5F5F5F5F5F5F5F5F5F5E2F5F5F5F5F5F5F5F5F5F5F5F5F5F5F0F028282828F0F0F0F0F0F0F0F5F5F5F5F5F5F5F5F5F5F5F5F5F5F5F5F5F5F5F5F5F5F5F5F5F5F5F5F5F5F5F5F5F5F5F5F5F5F5F5F5F5F5F5F5F5F5F5F5F5F5F5F5F5F5F5F5F5F5F5F5F5F5F5F5F5
310
F5F5F5F5F5F5F5F5F5F5F5F5F5F5F5F5F5F5F5F5F5F5F5F5F5F5F5F5F5F5F5F5F5F5F5F5F5F5F5F5F5F5F5F5F5F0F5F5F5F5F5F5F5F5F5F5F5F5F5F5E2F5F5F5F5F5F5F5F5F5F5F5E2E2E2F5F5F5F5F5F5F5F5F5F5F5E2F5F5F5F5F5F5F5F5F5F5F5F5F5F5F0F028282828F0F0F5F5F5F5F0F5F5F5F5F5F5F5F5F5F5BE6161
310
BE61F5F5F5F5F5F5F5F5F5F5F5F5F5F5F5F5F5F5F5F5F5F5F5F5F5F5F5F5F5F5F5F5F5F5F5F5F5F5F5F5F5F5F5F5F5F5F5F5F5F5F5F5F5F5F5F5F5F5F5F5F5F5F5F5F5F5F5F5F5F5F5F5F5F5F5F5F5F5F5F5F5F5F5F5F5F5F5F5F5F5F5F5F5F5F5F5F0F5F5F5F5F5F5F5F5F5F5F5F5F5F5E2F5F5F5F5F5F5F5F5F5F5F5E2E2
310
E2F5F5F5F5F5F5F5F5F5F5F5F5F5F5F5F5F5F5F5F5F5F5F5F5F5F5F0F0F5F5F5F5F0F0F5F5F5F5F0F5F5F5F5F5F5F5F5F5F5F5BEBEBE61F5F5F5F5F5F5F5F5F5F5F5F5F5F5F5F5F5F5F5F5F5F5F5F5F5F5F5F5F5F5F5F5F5F5F5F5F5F5F5F5F5F5F5F5F5F5F5F5F5F5F5F5F5F5F5F5F5F5F5F5F5F5F5F5F5F5F5F5F5F5F5F5
310
F5F5F5F5F5F5F5F5F5F5F5F5F5F5F5F5F5F5F5F5F5F5F5F5F0F5F5F5F5F5F5F5F5F5F5F5F5F5F5F5F5F5F5F5F5F5F5F5F5F5F5E2E2E2F5F5F5F5F5F5F5F5F5F5F5F5F5F5F5F5F5F5F5F5F5F5F5F5F5F5F0F0F5F5F5F5F0F0F5F5F5F5F0F5F5F5F5F5F5F5F5F5F5F56161F061F5F5F5F5F5F5F5F5F5F5F5F5F5F5F5F5F5F5F5
310
F5F5F5F5F5F5F5F5F5F5F5F5F5F5F5F5F5F5F5F5F5F5F5F5F5F5F5F5F5F5F5F5F5F5F5F5F5F5F5F5F5F5F5F5F5F5F5F5F5F5F5F5F5F5F5F5F5F5F5F5F5F5F5F5F5F5F5F5F5F5F5F5F5F5F5F5F5F0F5F5F5F5F5F5F5F5F5F5F5F5F5F5F5F5F5F5F5F5F5F5F5F5F5F5E2E2E2F5F5F5F5F5F5F5F5F5F5F5F5F5F5F5F5F5F5F5F5
310
F5F5F5F5F5F5F0F0F5F5F5F5F0F0F5F5F5F5F0F5F5F5F5F5F5F5F5F5F5F5F5F5F5F5F5F5F5F5F5F5F5F5F5F5F5F5F5F5F5F5F5F5F5F5F5F5F5F5F5F5F5F5F5F5F5F5F5F5F5F5F5F5F5F5F5F5F5F5F5F5F5F5F5F5F5F5F5F5F5F5F5F5F5F5F5F5F5F5F5F5F5F5F5F5F5F5F5F5F5F5F5F5F5F5F5F5F5F5F5F5F5F5F5F5F5F5F5
310
F5F5F5F0F5F5F5F5F5F5F5F5F5F5F5F5F5F5F5F5F5F5F5F5F5F5F5F5F5F5E2E2E2F5F5F5F5F5F5F5F5F5F5F5F5F5F5F5F5F5F5F5F5F5F5F5F5F5F5F0F0F5F5F5F5F0F0F5F5F5F5F0F5F5F5F5F5F5F5F5F5F5F5F5F5F5F5F5F5F5F5F5F5F5F5F5F5F5F5F5F5F5F5F5F5F5F5F5F5F5F5F5F5F5F5F5F5F5F5F5F5F5F5F5F5F5F5
310
F5F5F5F5F5F5F5F5F5F5F5F5F5F5F5F5F5F5F5F5F5F5F5F5F5F5F5F5F5F5F5F5F5F5F5F5F5F5F5F5F5F5F5F5F5F5F5F5F5F5F5F5F5F5F5F5F0F5F5F5F5F5F5F5F5F5F5F5F5F5F5F5F5F5F5F5F5F5F5F5F5F5F5E2E2E2F5F5F5F5F5F5F5F5F5F5F5F5F5F5F5F5F5F5F5F5F5F5F5F5F5F5F0F028282828F0F0F0F0F0F0F0F0F5
310
F5F5F5F5F5F5F5F5F5F5F5F5F5F5F5F5F5F5F5F5F5F5F5F5F5F5F5F5F5F5F5F5F5F5F5F5F5F5F5F5F5F5F5F5F5F5F5F5F5F5F5F5F5F5F5F5F5F5F5F5F5F5F5F5F5F5F5F5F5F5F5F5F5F5F5F5F5F5F5F5F5F5F5F5F5F5F5F5F5F5F5F5F5F5F5F5F5F5F5F5F5F5F5F5F5F5F5F5F5F0F5F5F5F5F5F5F5F5F5F5F5F5F5F5F5F5F5
310
F5F5F5F5F5F5F5F5F5E2E2E2F5F5F5F5F5F5F5F5F5F5F5F5F5F5F5F5F5F5F5F5F5F5F5F5F5F5F0F028282828F0F0F5F5F5F5F0F0F5F5F5F5F5F5F5F5F5F5F5F5F5F5F5F5F5F5F5F5F5F5F5F5F5F5F5F5F5F5F5F5F5F5F5F5F5F5F5F5F5F5F5F5F5F5F5F5F5F5F5F5F5F5F5F5F5F5F5F5F5F5F5F5F5F5F5F5F5F5F5F5F5F5F5
310
F5F5F5F5F5F5F5F5F5F5F5F5F5F5F5F5F5F5F5F5F5F5F5F5F5F5F5F5F5F5F5F5F5F5F5F0F5F5F5F5F5F5F5F5F5F5F5F5F5F5F5F5F5F5F5F5F5F5F5F5F5F5E2E2E2F5F5F5F5F5F5F5F5F5F5F5F5F5F5F5F5F5F5F5F5F5F5F5F5F5F5F0F028282828F0F5F5F5F5F5F5F5F5F5F5F5F5F5F5F5F5F5F5F5F5F5F5F5F5F5F5F5F5F5
310
F5F5F5F5F5F5F5F5F5F5F5F5F5F5F5F5F5F5F5F5F5F5F5F5F5F5F5F5F5F5F5F5F5F5F5F5F5F5F5F5F5F5F5F5F5F5F5F5F5F5F5F5F5F5F5F5F5F5F5F5F5F5F5F5F5F5F5F5F5F5F5F5F5F5F5F5F5F5F5F5F5F5F5F5F5F5F5F5F0F5F5F5F5F5F5F5F5F5F5F5F5F5F5F5F5F5F5F5F5F5F5F5F5F5F5E2E2E2F5F5F5F5F5F5F5F5F5
310
F5F5F5F5F5F5F5F5F5F5F5F5F5F5F5F5F5F0F0F5F5F5F5F0F0ECECBEE2E2E2BEE2BEE2F0F0F0F0F0F0F0F0F0F0E2E2BEE2ECE2F0F0F0F0F0F0F0F0F0F0F0F0F0F5F5F5F5F5F5F5F5F5F5F5F5F5F5F5F5F5F5F5F5F5F5F5F5F5F5F5F5F5F5F5F5F5F5F5F5F5F5F5F5F5F5F5F5F5F5F5F5F5F5F5F5F5F5F5F5F5F5F5F5F5F5F5
310
F5F5F5F5F5F5F5F5F5F5F5F5F5F5F0F5F5F5F5F5F5F5F5F5F5F5F5F5F5F5F5F5F5F5F5F5F5F5F5F5F5E2E2E2F5F5F5F5F5F5F5F5F5F5F5F5F5F5F5F5F5F5F5F5F5F5F5F5F5F5F0F0F5F5F5F5F0F0E2E2BEBEE2E2BEE2BEE2F0F0F0F0F0F0F0F0F0F0E2BEBEE2E2E2F5F5F5F0F0F0F0F0F0F0F0F0F0F5F5F5F5F5F5F5F5F5F5
310
F5F5F5F5F5F5F5F5F5F5F5F5F5F5F5F5F5F5F5F5F5F5F5F5F5F5F5F5F5F5F5F5F5F5F5F5F5F5F5F5F5F5F5F5F5F5F5F5F5F5F5F5F5F5F5F5F5F5F5F5F5F5F5F5F5F5F5F0F5F5F5F5F5F5F5F5F5F5F5F5F5F5F5F5F5F5F5F5F5F5F5F5F5F5E2E2E2F5F5F5F5F5F5F5F5F5F5F5E2F5F5F5F5F5F5F5F5F5F5F5F5F5F5F0F0F5F5
310
F5F5F0F0E2E2BEBEE2F5BEE2BEF0F0F0F0F0F0F0F0F0F0F0E2BEBEE2E2E2F5F5F5F0F0F0F0F0F0F0F0F0F0F5F5F5F5F5F5F5F5F5F5F5F5F5F5F5F5F5F5F5F5F5F5F5F5F5F5F5F5F5F5F5F5F5F5F5F5F5F5F5F5F5F5F5F5F5F5F5F5F5F5F5F5F5F5F5F5F5F5F5F5F5F5F5F5F5F5F5F5F5F5F5F5F5F5F5F5F5F0F5F5F5F5F5F5
310
F5F5F5F5F5F5F5F5E2F5F5F5F5F5F5F5F5F5F5F5E2E2E2F5F5F5F5F5F5F5F5F5F5F5E2F5F5F5F5F5F5F5F5F5F5F5F5F5F5F0F028282828F0F0E2E2BEBEE2F5BEE2BEF5F5F0F0F0F0F0F0F5F0F0E2BEBEE22828F5F5F5F5F5F5F5F5F5F5F5F5F0F5F5F5F5F5F5F5F5F5F5F5F5F5F5F5F5F5F5F5F5F5F5F5F5F5F5F5F5F5F5F5
310
F5F5F5F5F5F5F5F5F5F5F5F5F5F5F5F5F5F5F5F5F5F5F5F5F5F5F5F5F5F5F5F5F5F5F5F5F5F5F5F5F5F5F5F5F5F5F0F5F5F5F5F5F5F5F5F5F5F5F5F5F5E2F5F5F5F5F5F5F5F5F5F5F5E2E2E2F5F5F5F5F5F5F5F5F5F5F5E2F5F5F5F5F5F5F5F5F5F5F5F5F5F5F0F028282828F0F0E2E2BEE2E2F5BEE2BEF5F5F0F0F0F0F0F0
310
F5F0F0E2E2BEE22828F5F5F5F0F0F0F0F0F0F5F5F5F0F5F5F5F5F5F5F5F5F5F5F5F5F5F5F5F5F5F5F5F5F5F5F5F5F5F5F5F5F5F5F5F5F5F5F5F5F5F5F5F5F5F5F5F5F5F5F5F5F5F5F5F5F5F5F5F5F5F5F5F5F5F5F5F5F5F5F5F5F5F5F5F5F5F5F5F5F5F0F5F5F5F5F5F5F5F5F5F5F5F5F5F5E2F5F5F5F5F5F5F5F5F5F5F5E2
310
E2E2F5F5F5F5F5F5F5F5F5F5F5E2F5F5F5F5F5F5F5F5F5F5F5F5F5F5F0F028282828F0F0BEE2BEE2E2E2BEE2BEE2F5F5F5F5F5F5F5F5F0F0E2E2BEE228E2F5F5F5F5F5F5F5F5F5F5F5F5F0F5F5F5F5F5F5F5F5F5F5F5F5F5F5F5F5F5F5F5F5F5F5F5F5F5F5F5F5F5F5F5F5F5F5F5F5F5F5F5F5F5F5F5F5F5F5F5F5F5F5F5F5
310
F5F5F5F5F5F5F5F5F5F5F5F5F5F5F5F5F5F5F5F5F5F5F5F5F5F0F5F5F5F5F5F5F5F5F5F5F5F5F5F5E2F5F5F5F5F5F5F5F5F5F5F5E2E2E2F5F5F5F5F5F5F5F5F5F5F5E2F5F5F5F5F5F5F5F5F5F5F5F5F5F5F0F028282828F0F0BEBEC3BEE2E2E2E2E2E2E2E2E2E2E2ECE2BEE2F0E2BEC3C3BE40E2E2E2E2E2E2E2E2E2ECE2BE
310
E2F5F5F5F5F5F5F5F5F5F5F5F5F5F5F5F5F5F5F5F5F5F5F5F5F5F5F5F5F5F5F5F5F5F5F5F5F5F5F5F5F5F5F5F5F5F5F5F5F5F5F5F5F5F5F5F5F5F5F5F5F5F5F5F5F5F5F5F5F5F5F5F5F5F5F5F5F5F0F5F5F5F5F5F5F5F5F5F5F5F5F5F5E2F5F5F5F5F5F5F5F5F5F5F5E2E2E2F5F5F5F5F5F5F5F5F5F5F5E2F5F5F5F5F5F5F5
310
F5F5F5F5F5F5F5F0F0F5F5F5F5F0F0BEBEBEBEBEE2E2E2E2F5E2E2E2E261BEBEBEE2F0BECDBECDBE28E2E2E2F5E2E2E2E2BEECF5BEE2F5F5F5F5F5F5F5F5F5F5F5F5F5F5F5F5F5F5F5F5F5F5F5F5F5F5F5F5F5F5F5F5F5F5F5F5F5F5F5F5F5F5F5F5F5F5F5F5F5F5F5F5F5F5F5F5F5F5F5F5F5F5F5F5F5F5F5F5F5F5F5F5F5
310
F5F5F5F5F0F5F5F5F5F5F5F5F5F5F5F5F5F5F5E2F5F5F5F5F5F5F5F5F5F5F5E2E2E2F5F5F5F5F5F5F5F5F5F5F5E2F5F5F5F5F5F5F5F5F5F5F5F5F5F5F0F0F5F5F5F5F0F0E2BEC3BEE2E2DCE2E2F5E2E2E2C3BEBEBEDCE2F0BEBEBEF5BE28E2E2E2F5E2E2E2E2F5BEF5E2E2F5F5F5F5F5F5F5F5F5F5F5F5F5F5F5F5F5F5F5F5
310
F5F5F5F5F5F5F5F5F5F5F5F5F5F5F5F5F5F5F5F5F5F5F5F5F5F5F5F5F5F5F5F5F5F5F5F5F5F5F5F5F5F5F5F5F5F5F5F5F5F5F5F5F5F5F5F5F5F0F5F5F5F5F5F5F5F5F5F5F5F5F5F5E2F5F5F5F5F5F5F5F5F5F5F5E2E2E2F5F5F5F5F5F5F5F5F5F5F5E2F5F5F5F5F5F5F5F5F5F5F5F5F5F5F0F0F5F5F5F5F0F0DCC3BEC3BEE2
310
DCDCBEBEBEBEE2BEBEBEBEDCBEF0BEBEBEBEBE28BEBEBEBEBEBEBEBEBEBEBEBEBEF5F5F5F5F5F5F5F5F5F5F5F5F5F5F5F5F5F5F5F5F5F5F5F5F5F5F5F5F5F5F5F5F5F5F5F5F5F5F5F5F5F5F5F5F5F5F5F5F5F5F5F5F5F5F5F5F5F5F5F5F5F5F5F5F5F5F5F5F5F5F5F5F5F5F5F5F5F0F5F5F5F5F5F5F5F5F5F5F5F5F5F5E2F5
310
F5F5F5F5F5F5F5F5F5F5E2E2E2F5F5F5F5F5F5F5F5F5F5F5E2F5F5F5F5F5F5F5F5F5F5F5F5F5F5F0F0F5F5F5F5F0F0E2BEC0C0BEE2DCDCE2F5E2E2E2BE61BEBEDCE2F0BEBEBEF5BE28E2E2E2F5E2E2E2E2F5BEF5E2E2F5F5F5F5F5F5F5F5F5F5F5F5F5F5F5F5F5F5F5F5F5F5F5F5F5F5F5F5F5F5F5F5F5F5F5F5F5F5F5F5F5
310
F5F5F5F5F5F5F5F5F5F5F5F5F5F5F5F5F5F5F5F5F5F5F5F5F5F5F5F5F5F5F5F5F5F5F5F5F0F5F5F5F5F5F5F5F5F5F5F5F5F5F5E2F5F5F5F5F5F5F5F5F5F5F5E2E2E2F5F5F5F5F5F5F5F5F5F5F5E2F5F5F5F5F5F5F5F5F5F5F5F5F5F5F0F0F5F5F5F5F0F0E2161640E2E2E2E2E2BEE2E2E2C361BEBEDCE2F0BECDBECDBE28E2
310
E2E2BEE2E2BEBEF5BEF5BEE2F5F5F5F5F5F5F5F5F5F5F5F5F5F5F5F5F5F5F5F5F5F5F5F5F5F5F5F5F5F5F5F5F5F5F5F5F5F5F5F5F5F5F5F5F5F5F5F5F5F5F5F5F5F5F5F5F5F5F5F5F5F5F5F5F5F5F5F5F5F5F5F5F5F5F5F5F5F0F5F5F5F5F5F5F5F5F5F5F5F5F5F5E2F5F5F5F5F5F5F5F5F5F5F5E2E2E2F5F5F5F5F5F5F5F5
310
F5F5F5E2F5F5F5F5F5F5F5F5F5F5F5F5F5F5F0F0F5F5F5F5F0F0BEBEBEBEBE61E2E2E2E2E2E261BE61C3BEBEE2F040BEABBEAB4040404028284040BEBEECE2BEE2F5F5F5F5F5F5F5F5F5F5F5F5F5F5F5F5F5F5F5F5F5F5F5F5F5F5F5F5F5F5F5F5F5F5F5F5F5F5F5F5F5F5F5F5F5F5F5F5F5F5F5F5F5F5F5F5F5F5F5F5F5F5
310
F5F5F5F5F5F5F5F5F5F5F5F5F5F5F5F0F5F5F5F5F5F5F5F5F5F5F5F5F5F5E2F5F5F5F5F5F5F5F5F5F5F5E2E2E2F5F5F5F5F5F5F5F5F5F5F5E2F5F5F5F5F5F5F5F5F5F5F5F5F5F5F0F0F5F5F5F5F0F0F0F0F0F0F06161616161616161F0F0F0F0F0F0F0282828282840282828282828F0F0F0F0F0F0F0F5F5F5F5F5F5F5F5F5
310
F5F5F5F5F5F5F5F5F5F5F5F5F5F5F5F5F5F5F5F5F5F5F5F5F5F5F5F5F5F5F5F5F5F5F5F5F5F5F5F5F5F5F5F5F5F5F5F5F5F5F5F5F5F5F5F5F5F5F5F5F5F5F5F5F5F5F5F5F0F5F5F5F5F5F5F5F5F5F5F5F5F5F5E2F5F5F5F5F5F5F5F5F5F5F5E2E2E2F5F5F5F5F5F5F5F5F5F5F5E2F5F5F5F5F5F5F5F5F5F5F5F5F5F5F0C3C3
310
C3C3C3F0F0F0F0F0F0F0F0C3C3F0C3C3C3C3F0F0C3C3C3F0C3C3C3C3C3C3C3C3C3C3C3C3C3C3C3C3C3C3C3C3C3C3C3C3C328282828282828282828282828282828282828282828282828282828282828282828282828C3C3C3C3C3C3C3C3C3C3C3C3C3C3C3C3C3C3C3C3C3C3C3C3C3C3C3C3C3C3C3C3C3C3C3F0F5F5F5F5F5
310
F5F5F5F5F5F5F5F5F5E2F5F5F5F5F5F5F5F5F5F5F5E2E2E2F5F5F5F5F5F5F5F5F5F5F5E2F5F5F5F5F5F5F5F5F5F5F5F5F5F5F0F0F5F5F5F5F0F540F5F0E2E2E2F5F5F0F0F0F0F0F0F0F0F0F0F0F5F5F5F5F5F5F5F5F5F5F5F5F5F5F5F5F5F5F5F5F5F5F5F5F5F5F5F5F5F5F5F5F5F5F5F5F5F5F5F5F5F5F5F5F5F5F5F5F5F5
310
F5F5F5F5F5F5F5F5F5F5F5F5F5F5F5F5F5F5F5F5F5F5F5F5F5F5F5F5F5F5F5F0F0F0F0F0F0F5F5F5F5F5F5F5F5F5F5F0F5F5F5F5F5F5F5F5F5F5F5F5F5F5E2F5F5F5F5F5F5F5F5F5F5F5E2E2E2F5F5F5F5F5F5F5F5F5F5F5E2F5F5F5F5F5F5F5F5F5F5F5F5F5F5F0F0F5F5F5F5F0404040E2E2E2E2F5F5F0F0DCF0BEE2F0F0
310
F0F0F0F5F5F5F5F5F5F5F5F5F5F5F5F5F5F5F5F5F5F5F5F5F5F5F5F5F5F5F5F5F5F5F5F5F5F5F5F5F5F5F5F5F5F5F5F5F5F5F5F5F5F5F5F5F5F5F5F5F5F5F5F5F5F5F5F5F5F5F5F5F5F5F5F5F5F5F5F5F5F5F5F5F0F5F5F5F5F0F5F5F5F5F5F5F5F5F5F5F0F5F5F5F5F5F5F5F5F5F5F5F5F5F5E2F5F5F5F5F5F5F5F5F5F5F5
310
E2E2E2F5F5F5F5F5F5F5F5F5F5F5F5F5F5F5F5F5F5F5F5F5F5F5F5F5F5F0F0F5F5F5F5F0404040404040F0F5F5F0E2F0F0BEBEF0F0F0F0F0F5F5F5F5F5F5F5F5F5F5F5F5F5F5F5F5F5F5F5F5F5F5F5F5F5F5F5F5F5F5F5F5F5F5F5F5F5F5F5F5F5F5F5F5F5F5F5F5F5F5F5F5F5F5F5F5F5F5F5F5F5F5F5F5F5F5F5F5F5F5F5
310
F5F5F5F5F5F5F5F5F5F5F0F5F5F5F5F0F5F5F5F5F5F5F5F5F5F5F0F5F5F5F5F5F5F5F5F5F5F5F5F5F5F5F5F5F5F5F5F5F5F5F5F5F5E2E2E2F5F5F5F5F5F5F5F5F5F5F5F5F5F5F5F5F5F5F5F5F5F5F5F5F5F5F0F0C3C3C3C3F0404040404040F0F5F5F0E2F0F0BEE2F0168484F0F5F5F5F5F5F5F5F5F5F5F5F5F5F5F5F5F5F5
310
F5F5F5F5F5F5F5F5F5F5F5F5F5F5F5F5F5F5F5F5F5F5F5F5F5F5F5F5F5F5F5F5F5F5F5F5F5F5F5F5F5F5F5F5F5F5F5F5F5F5F5F5F5F5F5F5F5F5F5F5F5F5F5F0F5F5F5F5F0F5F5F5F5F5F5F5F5F5F5F0F5F5F5F5F5F5F5F5F5F5F5F5F5F5F5F5F5F5F5F5F5F5F5F5F5F5E2E2E2F5F5F5F5F5F5F5F5F5F5F5F5F5F5F5F5F5F5
310
F5F5F5F5F5F5F5F5F0F0C3C3C3C3F04040404040F0F0F5F5F0F0F0F0F0F0F0F0F0F0F0F5F5F5F5F5F5F5F5F5F5F5F5F5F5F5F5F5F5F5F5F5F5F5F5F5F5F5F5F5F5F5F5F5F5F5F5F5F5F5F5F5F5F5F5F5F5F5F5F5F5F5F5F5F5F5F5F5F5F5F5F5F5F5F5F5F5F5F5F5F5F5F5F5F5F5F5F5F5F5F5F5F0F5F5F5F5F0F5F5F5F5F5
310
F5F5F5F5F5F0F5F5F5F5F5F5F5F5F5F5F5F5F5F5F5F5F5F5F5F5F5F5F5F5F5F5E2E2E2F5F5F5F5F5F5F5F5F5F5F5F5F5F5F5F5F5F5F5F5F5F5F5F5F5F5F0F0C3C3C3C3F0F5F5F5F5F5F5F5F5F5F0F0F0F0F0F0F0F0F0F0F0F5F5F5F5F5F5F5F5F5F5F5F5F5F5F5F5F5F5F5F5F5F5F5F5F5F5F5F5F5F5F5F5F5F5F5F5F5F5F5
310
F5F5F5F5F5F5F5F5F5F5F5F5F5F5F5F5F5F5F5F5F5F5F5F5F5F5F5F5F5F5F5F5F5F5F5F5F5F5F5F5F5F5F0F5F5F5F5F0F5F5F5F5F5F5F5F5F5F5F0F5F5F5F5F5F5F5F5F5F5F5F5F5F5F5F5F5F5F5F5F5F5F5F5F5F5E2E2E2F5F5F5F5F5F5F5F5F5F5F5F5F5F5F5F5F5F5F5F5F5F5F5F5F5F5F0F0F5F5F5F5F0F5F5F5F5F5F5
310
F5F5F5F0F0F0F0F0F0F0F0F0F0F0F5F5F5F5F5F5F5F5F5F5F5F5F5F5F5F5F5F5F5F5F5F5F5F5F5F5F5F5F5F5F5F5F5F5F5F5F5F5F5F5F5F5F5F5F5F5F5F5F5F5F5F5F5F5F5F5F5F5F5F5F5F5F5F5F5F5F5F5F5F5F5F5F5F5F5F5F5F5F5F5F5F0F0F0F0F0F0F5F5F5F5F5F5F5F5F5F5F0F5F5F5F5F5F5F5F5F5F5F5F5F5F5F5
310
F5F5F5F5F5F5F5F5F5F5F5E2E2E2F5F5F5F5F5F5F5F5F5F5F5F5F5F5F5F5F5F5F5F5F5F5F5F5F5F5F0F0C3C3C3C3F0F5F5F5F5F5F5F5F5F5F0F5F5F5F5F0F5F5F5F5F5F5F5F5F5F5F5F5F5F5F5F5F5F5F5F5F5F5F5F5F5F5F5F5F5F5F5F5F5F5F5F5F5F5F5F5F5F5F5F5F5F5F5F5F5F5F5F5F5F5F5F5F5F5F5F5F5F5F5F5F5
310
F5F5F5F5F5F5F5F5F5F5F5F5F5F5F5F5F5F5F5F5F5F5F5F5F5F5F5F5F5F5F5F5F5F5F5F5F5F0F5F5F5F5F5F5F5F5F5F5F5F5F5F5F5F5F5F5F5F5F5F5F5F5F5F5E2E2E2F5F5F5F5F5F5F5F5F5F5F5F5F5F5F5F5F5F5F5F5F5F5F5F5F5F5F0F0C3C3C3C3F0F5F5F5F5F5F5F5F5F5F5F5F5F5F5F5F5F5F5F5F5F5F5F5F5F5F5F5
310
F5F5F5F5F5F5F5F5F5F5F5F5F5F5F5F5F5F5F5F5F5F5F5F5F5F5F5F5F5F5F5F5F5F5F5F5F5F5F5F5F5F5F5F5F5F5F5F5F5F5F5F5F5F5F5F5F5F5F5F5F5F5F5F5F5F5F5F5F5F5F5F5F5F5F5F5F5F5F5F5F5F5F5F5F5F5F5F5F5F5F0F5F5F5F5F5F5F5F5F5F5F5F5F5F5F5F5F5F5F5F5F5F5F5F5F5F5E2E2E2F5F5F5F5F5F5F5
310
F5F5F5F5F5F5F5F5F5F5F5F5F5F5F5F5F5F5F5F0F0C3C3C3C3F0F5F5F5F5F5F5F5F5F5F5F5F5F5F5F5F5F5F5F5F5F5F5F5F5F5F5F5F5F5F5F5F5F5F5F5F5F5F5F5F5F5F5F5F5F5F5F5F5F5F5F5F5F5F5F5F5F5F5F5F5F5F5F5F5F5F5F5F5F5F5F5F5F5F5F5F5F5F5F5F5F5F5F5F5F5F5F5F5F5F5F5F5F5F5F5F5F5F5F5F5F5
310
F5F5F5F5F5F5F5F5F5F5F5F5F5F5F5F5F0F5F5F5F5F5F5F5F5F5F5F5F5F5F5F5F5F5F5F5F5F5F5F5F5F5F5E2E2E2F5F5F5F5F5F5F5F5F5F5F5E2F5F5F5F5F5F5F5F5F5F5F5F5F5F5F0F0C3C3C3C3F0F5F5F5F5F5F5F5F5F5F5F5F5F5F5F5F5F5F5F5F5F5F5F5F5F5F5F5F5F5F5F5F5F5F5F5F5F5F5F5F5F5F5F5F5F5F5F5F5
310
F5F5F5F5F5F5F5F5F5F5F5F5F5F5F5F5F5F5F5F5F5F5F5F5F5F5F5F5F5F5F5F5F5F5F5F5F5F5F5F5F5F5F5F5F5F5F5F5F5F5F5F5F5F5F5F5F5F5F5F5F5F5F5F5F5F5F5F5F5F0F5F5F5F5F5F5F5F5F5F5F5F5F5F5E2F5F5F5F5F5F5F5F5F5F5F5E2E2E2F5F5F5F5F5F5F5F5F5F5F5E2F5F5F5F5F5F5F5F5F5F5F5F5F5F5F0F0
310
C3C3C3C3F0F5F5F5F5F5F5F5F5F5F5F5F5F5F5F5F5F5F5F5F5F5F5F5F5F5F5F5F5F5F5F5F5F5F5F5F5F5F5F5F5F5F5F5F5F5F5F5F5F5F5F5F5F5F5F5F5F5F5F5F5F5F5F5F5F5F5F5F5F5F5F5F5F5F5F5F5F5F5F5F5F5F5F5F5F5F5F5F5F5F5F5F5F5F5F5F5F5F5F5F5F5F5F5F5F5F5F5F5F5F5F5F5F5F5F5F5F5F0F5F5F5F5
310
F5F5F5F5F5F5F5F5F5F5E2F5F5F5F5F5F5F5F5F5F5F5E2E2E2F5F5F5F5F5F5F5F5F5F5F5E2F5F5F5F5F5F5F5F5F5F5F5F5F5F5F0F0C3C3C3C3F0F5F5F5F5F5F5F5F5F5F5F5F5F5F5F5F5F5F5F5F5F5F5F5F5F5F5F5F5F5F5F5F5F5F5F5F5F5F5F5F5F5F5F5F5F5F5F5F5F5F5F5F5F5F5F5F5F5F5F5F5F5F5F5F5F5F5F5F5F5
310
F5F5F5F5F5F5F5F5F5F5F5F5F5F5F5F5F5F5F5F5F5F5F5F5F5F5F5F5F5F5F5F5F5F5F5F5F5F5F5F5F5F5F5F5F5F5F5F5F0F5F5F5F5F5F5F5F5F5F5F5F5F5F5E2F5F5F5F5F5F5F5F5F5F5F5E2E2E2F5F5F5F5F5F5F5F5F5F5F5E2F5F5F5F5F5F5F5F5F5F5F5F5F5F5F0F0F5F5F5F5F0F5F5F5F5F5F5F5F5F5F5F5F5F5F5F5F5
310
F5F5F5F5F5F5F5F5F5F5F5F5F5F5F5F5F5F5F5F5F5F5F5F5F5F5F5F5F5F5F5F5F5F5F5F5F5F5F5F5F5F5F5F5F5F5F5F5F5F5F5F5F5F5F5F5F5F5F5F5F5F5F5F5F5F5F5F5F5F5F5F5F5F5F5F5F5F5F5F5F5F5F5F5F5F5F5F5F5F5F5F5F5F5F5F5F5F5F5F5F5F0F5F5F5F5F5F5F5F5F5F5F5F5F5F5E2F5F5F5F5F5F5F5F5F5F5
310
F5E2E2E2F5F5F5F5F5F5F5F5F5F5F5E2F5F5F5F5F5F5F5F5F5F5F5F5F5F5F0F0F5F5F5F5F0F5F5F5F5F5F5F5F5F5F5F5F5F5F5F5F5F5F5F5F5F5F5F5F5F5F5F5F5F5F5F5F5F5F5F5F5F5F5F5F5F5F5F5F5F5F5F5F5F5F5F5F5F5F5F5F5F5F5F5F5F5F5F5F5F5F5F5F5F5F5F5F5F5F5F5F5F5F5F5F5F5F5F5F5F5F5F5F5F5F5
310
F5F5F5F5F5F5F5F5F5F5F5F5F5F5F5F5F5F5F5F5F5F5F5F5F5F5F5F0F5F5F5F5F5F5F5F5F5F5F5F5F5F5E2F5F5F5F5F5F5F5F5F5F5F5E2E2E2F5F5F5F5F5F5F5F5F5F5F5E2F5F5F5F5F5F5F5F5F5F5F5F5F5F5F0F0F5F5F5F5F0F5F5F5F5F5F5F5F5F5F5F5F5F5F5F5F5F5F5F5F5F5F5F5F5F5F5F5F5F5F5F5F5F5F5F5F5F5
310
F5F5F5F5F5F5F5F5F5F5F5F5F5F5F5F5F5F5F5F5F5F5F5F5F5F5F5F5F5F5F5F5F5F5F5F5F5F5F5F5F5F5F5F5F5F5F5F5F5F5F5F5F5F5F5F5F5F5F5F5F5F5F5F5F5F5F5F5F5F5F5F5F5F5F5F5F5F5F5F5F0F5F5F5F5F5F5F5F5F5F5F5F5F5F5E2F5F5F5F5F5F5F5F5F5F5F5E2E2E2F5F5F5F5F5F5F5F5F5F5F5E2F5F5F5F5F5
310
F5F5F5F5F5F5F5F5F5F0F0F5F5F5F5F0F5F5F5F5F5F5F5F5F5F5F5F5F5F5F5F5F5F5F5F5F5F5F5F5F5F5F5F5F5F5F5F5F5F5F5F5F5F5F5F5F5F5F5F5F5F5F5F5F5F5F5F5F5F5F5F5F5F5F5F5F5F5F5F5F5F5F5F5F5F5F5F5F5F5F5F5F5F5F5F5F5F5F5F5F5F5F5F5F5F5F5F5F5F5F5F5F5F5F5F5F5F5F5F5F5F5F5F5F5F5F5
310
F5F5F5F5F5F5F0F5F5F5F5F5F5F5F5F5F5F5F5F5F5E2F5F5F5F5F5F5F5F5F5F5F5E2E2E2F5F5F5F5F5F5F5F5F5F5F5E2F5F5F5F5F5F5F5F5F5F5F5F5F5F5F0F0F5F5F5F5F0F5F5F5F5F5F5F5F5F5F5F5F5F5F5F5F5F5F5F5F5F5F5F5F5F5F5F5F5F5F5F5F5F5F5F5F5F5F5F5F5F5F5F5F5F5F5F5F5F5F5F5F5F5F5F5F5F5F5
310
F5F5F5F5F5F5F5F5F5F5F5F5F5F5F5F5F5F5F5F5F5F5F5F5F5F5F5F5F5F5F5F5F5F5F5F5F5F5F5F5F5F5F5F5F5F5F5F5F5F5F5F5F5F5F5F5F5F5F5F0F5F5F5F5F5F5F5F5F5F5F5F5F5F5E2F5F5F5F5F5F5F5F5F5F5F5E2E2E2F5F5F5F5F5F5F5F5F5F5F5E2F5F5F5F5F5F5F5F5F5F5F5F5F5F5F0F0C3C3C3C3F0C3C3C3C3C3
310
C3C3C3C3C3C3C3C3C3C3C3C3C3C3C3C3C3C3C3C3C3C3C3C3C3C3C3C3C3C3C3C3C3C3C3C3C3C3C3C3C3C3C3C3C3C3C3C3C3C3C3C3C3C3C3C3C3C3C3C3C3C3C3C3C3C3C3C3C3C3C3C3C3C3C3C3C3C3C3C3C3C3C3C3C3C3C3C3C3C3C3C3C3C3C3C3C3C3C3C3C3C3C3C3C3C3C3C3C3C3C3C3F0F5F5F5F5F5F5F5F5F5F5F5F5F5F5
310
E2F5F5F5F5F5F5F5F5F5F5F5E2E2E2F5F5F5F5F5F5F5F5F5F5F5E2F5F5F5F5F5F5F5F5F5F5F5F5F5F5F0F5F5F5F5F5F5F5F5F5F5F5F5F5F5F5F5F5F5F5F5F5F5F5F5F5F5F5F5F5F5F5F5F5F5F5F5F5F5F5F5F5F5F5F5F5F5F5F5F5F5F5F5F5F5F5F5F5F5F5F5F5F5F5F5F5F5F5F5F5F5F5F5F5F5F5F5F5F5F5F5F5F5F5F5F5
310
F5F5F5F5F5F5F5F5F5F5F5F5F5F5F5F5F5F5F5F5F5F5F5F5F5F5F5F5F5F5F5F5F5F5F5F5F5F5F0F5F5F5F5F5F5F5F5F5F5F5F5F5F5E2F5F5F5F5F5F5F5F5F5F5F5E2E2E2F5F5F5F5F5F5F5F5F5F5F5E2F5F5F5F5F5F5F5F5F5F5F5F5F5F5F0F5F5F5F5F5F5F5F5F5F5F5F5F5F5F5F5F5F5F5F5F5F5F5F5F5F5F5F5F5F5F5F5
310
F5F5F5F5F5F5F5F5F5F5F5F5F5F5F5F5F5F5F5F5F5F5F5F5F5F5F5F5F5F5F5F5F5F5F5F5F5F5F5F5F5F5F5F5F5F5F5F5F5F5F5F5F5F5F5F5F5F5F5F5F5F5F5F5F5F5F5F5F5F5F5F5F5F5F5F5F5F5F5F5F5F5F5F5F5F5F5F5F5F5F5F0F5F5F5F5F5F5F5F5F5F5F5F5F5F5E2F5F5F5F5F5F5F5F5F5F5F5E2E2E2F5F5F5F5F5F5
310
F5F5F5F5F5E2F5F5F5F5F5F5F5F5F5F5F5F5F5F5F0F5F5F5F5F5F5F5F5F5F5F5F5F5F5F5F5F5F5F5F5F5F5F5F5F5F5F5F5F5F5F5F5F5F5F5F5F5F5F5F5F5F5F5F5F5F5F5F5F5F5F5F5F5BEBEF5F5F5F5F5F5F5F5F5F5F5F5F5F5F5F5F5F5F5F5F5F5F5F5F5F5F5F5F5F5F5F5F5F5F5F5F5F5F5F5F5F5F5F5F5F5F5F5F5F5F5
310
F5F5F5F5F5F5F5F5F5F5F5F5F5F5F5F5F5F0F5F5F5F5F5F5F5F5F5F5F5F5F5F5E2F5F5F5F5F5F5F5F5F5F5F5E2E2E2F5F5F5F5F5F5F5F5F5F5F5E2F5F5F5F5F5F5F5F5F5F5F5F5F5F5F0F5F5F5F5F5F5F5F5F5F5F5F5F5F5F5F5F5F5F5F5F5F5F5F5F5F5F5F5F5F5F5F5F5F5F5F5F5F5F5F5F5F5F5F5F5F5F5F5F5F5BEBEBE
310
F5BEF5F5F5F5F5BEBEF5BEBEF5BEBEF5BEBEF5F5BEF5BEBEF5F5F5F5F5F5F5F5F5F5F5F5F5F5F5F5F5F5F5F5F5F5F5F5F5F5F5F5F5F5F5F5F5F5F5F5F5F5F5F5F5F5F5F5F5F5F0F5F5F5F5F5F5F5F5F5F5F5F5F5F5E2F5F5F5F5F5F5F5F5F5F5F5E2E2E2F5F5F5F5F5F5F5F5F5F5F5E2F5F5F5F5F5F5F5F5F5F5F5F5F5F5F0
310
F5F5F5F5F5F5F5F5F5F5F5F5F5F5F5F5F5F5F5F5F5F5F5F5F5F5F5F5F5F5F5F5F5F5F5F5F5F5F5F5F5F5F5F5F5F5F5F5F5F5F5BEF5F5BEF5F5F5F5F5BEBEF5BEBEF5BEBEF5BEBEF5F5BEF5F5BEF5F5F5F5F5F5F5F5F5F5F5F5F5F5F5F5F5F5F5F5F5F5F5F5F5F5F5F5F5F5F5F5F5F5F5F5F5F5F5F5F5F5F5F5F5F5F0F5F5F5
310
F5F5F5F5F5F5F5F5F5F5F5E2F5F5F5F5F5F5F5F5F5F5F5E2E2E2F5F5F5F5F5F5F5F5F5F5F5E2F5F5F5F5F5F5F5F5F5F5F5F5F5F5F0F5F5F5F5F5F5F5F5F5F5F5F5F5F5F5F5F5F5F5F5F5F5F5F5F5F5F5F5F5F5F5F5F5F5F5F5F5F5F5F5F5F5F5F5F5F5F5F5F5F5F5BEBEF5BEF5BEBEBEF5BEBEF5BEBEF5F5BEF5F5BEF5F5BE
310
F5BEF5F5F5F5F5F5F5F5F5F5F5F5F5F5F5F5F5F5F5F5F5F5F5F5F5F5F5F5F5F5F5F5F5F5F5F5F5F5F5F5F5F5F5F5F5F5F5F0F5F5F5F5F5F5F5F5F5F5F5F5F5F5E2F5F5F5F5F5F5F5F5F5F5F5E2E2E2F5F5F5F5F5F5F5F5F5F5F5F5F5F5F5F5F5F5F5F5F5F5F5F5F5F5F0F5F5F5F5F5F5F5F5F5F5F5F5F5F5F5F5F5F5F5F5F5
310
F5F5F5F5F5F5F5F5F5F5F5F5F5F5F5F5F5F5F5F5F5F5F5F5F5F5F5F5F5BEBEBEBEBEBEF5F5F5F5BEBEF5BEBEF5BEBEF5BEBEF5BEBEF5BEBEF5F5F5F5F5F5F5F5F5F5F5F5F5F5F5F5F5F5F5F5F5F5F5F5F5F5F5F5F5F5F5F5F5F5F5F5F5F5F5F5F5F5F5F5F5F5F0F5F5F5F5F5F5F5F5F5F5F5F5F5F5F5F5F5F5F5F5F5F5F5F5
310
F5F5E2E2E2F5F5F5F5F5F5F5F5F5F5F5F5F5F5F5F5F5F5F5F5F5F5F5F5F5F5F0F5F5F5F5F5F5F5F5F5F5F5F5F5F5F5F5F5F5F5F5F5F5F5F5F5F5F5F5F5F5F5F5F5F5F5F5F5F5F5F5F5F5F5F5F5F5F5F5F5F5F5F5F5F5F5F5F5F5F5F5F5F5F5F5F5F5F5F5F5F5F5F5F5F5F5F5F5F5F5F5F5F5F5F5F5F5F5F5F5F5F5F5F5F5F5
310
F5F5F5F5F5F5F5F5F5F5F5F5F5F5F5F5F5F5F5F5F5F5F5F5F5F5F5F5F0F5F5F5F5F5F5F5F5F5F5F5F5F5F5F5F5F5F5F5F5F5F5F5F5F5F5E2E2E2F5F5F5F5F5F5F5F5F5F5F5F5F5F5F5F5F5F5F5F5F5F5F5F5F5F5F0F5F5F5F5F5F5F5F5F5F5F5F5F5F5F5F5F5F5F5F5F5F5F5F5F5F5F5F5F5F5F5F5F5F5F5F5F5F5F5F5F5F5
310
F5F5F5F5F5F5F5F5F5F5F5F5F5F5F5F5F5F5F5F5F5F5F5F5F5F5F5F5F5F5F5F5F5F5F5F5F5F5F5F5F5F5F5F5F5F5F5F5F5F5F5F5F5F5F5F5F5F5F5F5F5F5F5F5F5F5F5F5F5F5F5F5F5F5F5F5F5F5F5F5F5F0F5F5F5F5F5F5F5F5F5F5F5F5F5F5F5F5F5F5F5F5F5F5F5F5F5F5E2E2E2F5F5F5F5F5F5F5F5F5F5F5F5F5F5F5F5
310
F5F5F5F5F5F5F5F5F5F5F0F5F5F5F5F5F5F5F5F5F5F5F5F5F5F5F5F5F5F5F5F5F5F5F5F5F5F5F5F5F5F5F5F5F5F5F5F5F5F5F5F5F5F5F5F5F5F5F5F5F5F5F5F5F5F5F5F5F5F5F5F5F5F5F5F5F5F5F5F5F5F5F5F5F5F5F5F5F5F5F5F5F5F5F5F5F5F5F5F5F5F5F5F5F5F5F5F5F5F5F5F5F5F5F5F5F5F5F5F5F5F5F5F5F5F5F5
310
F5F5F5F5F5F5F5F0F5F5F5F5F5F5F5F5F5F5F5F5F5F5F5F5F5F5F5F5F5F5F5F5F5F5E2E2E2F5F5F5F5F5F5F5F5F5F5F5F5F5F5F5F5F5F5F5F5F5F5F5F5F5F5F0F0F0F0F0F0F0F0F0F0F0F0F0F0F0F0F0F0F0F0F0F0F0F0F0F0F0F0F0F0F0F0F0F0F0F0F0F0F0F0F0F0F0F0F0F0F0F0F0F0F0F0F0F0F0F0F0F0F0F0F0F0F0F0
310
F0F0F0F0F0F0F0F0F0F0F0F0F0F0F0F0F0F0F0F0F0F0F0F0F0F0F0F0F0F0F0F0F0F0F0F0F0F0F0F0F0F0F0F0F0F0F0F0F0F0F0F0F0F0F0F0F0F0F0F0F0F5F5F5F5F5F5F5F5F5F5F5F5F5F5F5F5F5F5F5F5F5F5F5F5F5F5E2E2E2F5F5F5F5F5F5F5F5F5F5F5F5F5F5F5F5F5F5F5F5F5F5F5F5F5F5F5F5F5F5F5F5F5F5F5F5F5
310
F5F5F5F5F5F5F5F5F5F5F5F5F5F5F5F5F5F5F5F5F5F5F5F5F5F5F5F5F5F5F5F5F5F5F5F5F5F5F5F5F5F5F5F5F5F5F5F5F5F5F5F5F5F5F5F5F5F5F5F5F5F5F5F5F5F5F5F5F5F5F5F5F5F5F5F5F5F5F5F5F5F5F5F5F5F5F5F5F5F5F5F5F5F5F5F5F5F5F5F5F5F5F5F5F5F5F5F5F5F5F5F5F5F5F5F5F5F5F5F5F5F5F5F5F5F5F5
310
F5F5F5F5F5F5F5F5F5F5F5F5F5E2E2E2F5F5F5F5F5F5F5F5F5F5F5F5F5F5F5F5F5F5F5F5F5F5F5F5F5F5F5F5F5F5F5F5F5F5F5F5F5F5F5F5F5F5F5F5F5F5F5F5F5F5F5F5F5F5F5F5F5F5F5F5F5F5F5F5F5F5F5F5F5F5F5F5F5F5F5F5F5F5F5F5F5F5F5F5F5F5F5F5F5F5F5F5F5F5F5F5F5F5F5F5F5F5F5F5F5F5F5F5F5F5F5
310
F5F5F5F5F5F5F5F5F5F5F5F5F5F5F5F5F5F5F5F5F5F5F5F5F5F5F5F5F5F5F5F5F5F5F5F5F5F5F5F5F5F5F5F5F5F5F5F5F5F5F5F5F5F5F5F5F5F5F5F5F5F5F5F5F5F5E2E2E2F5F5F5F5F5F5F5F5F5F5F5F5F5F5F5F5F5F5F5F5F5F5F5F5F5F5F5F5F5F5F5F5F5F5F5F5F5F5F5F5F5F5F5F5F5F5F5F5F5F5F5F5F5F5F5F5F5F5
310
F5F5F5F5F5F5F5F5F5F5F5F5F5F5F5F5F5F5F5F5F5F5F5F5F5F5F5F5F5F5F5F5F5F5F5F5F5F5F5F5F5F5F5F5F5F5F5F5F5F5F5F5F5F5F5F5F5F5F5F5F5F5F5F5F5F5F5F5F5F5F5F5F5F5F5F5F5F5F5F5F5F5F5F5F5F5F5F5F5F5F5F5F5F5F5F5F5F5F5F5F5F5F5F5F5F5F5F5F5F5F5F5F5F5F5F5F5F5F5E2E2E2F5F5F5F5F5
310
F5F5F5F5F5F5E2F5F5F5F5F5F5F5F5F5F5F5F5F5F5F5F5F5F5F5F5F5F5F5F5F5F5F5F5F5F5F5F5F5F5F5F5F5F5F5F5F5F5F5F5F5F5F5F5F5F5F5F5F5F5F5F5F5F5F5F5F5F5F5F5F5F5F5F5F5F5F5F5F5F5F5F5F5F5F5F5F5F5F5F5F5F5F5F5F5F5F5F5F5F5F5F5F5F5F5F5F5F5F5F5F5F5F5F5F5F5F5F5F5F5F5F5F5F5F5F5
310
F5F5F5F5F5F5F5F5F5F5F5F5F5F5F5F5F5F5F5F5F5F5F5F5F5F5F5F5F5F5F5F5F5E2F5F5F5F5F5F5F5F5F5F5F5E2E2E2F5F5F5F5F5F5F5F5F5F5F5E2F5F5F5F5F5F5F5F5F5F5F5F5F5F5F5F5F5F5F5F5F5F5F5F5F5F5F5F5F5F5F5F5F5F5F5F5F5F5F5F5F5F5F5F5F5F5F5F5F5F5F5F5F5F5F5F5F5F5F5F5F5F5F5F5F5F5F5
310
F5F5F5F5F5F5F5F5F5F5F5F5F5F5F5F5F5F5F5F5F5F5F5F5F5F5F5F5F5F5F5F5F5F5F5F5F5F5F5F5F5F5F5F5F5F5F5F5F5F5F5F5F5F5F5F5F5F5F5F5F5F5F5F5F5F5F5F5F5F5F5F5F5F5F5F5F5F5F5F5F5F5F5F5F5F5E2F5F5F5F5F5F5F5F5F5F5F5E2E2E2F5F5F5F5F5F5F5F5F5F5F5E2F5F5F5F5F5F5F5F5F5F5F5F5F5F5
310
F5F5F5F5F5F5F5F5F5F5F5F5F5F5F5F5F5F5F5F5F5F5F5F5F5F5F5F5F5F5F5F5F5F5F5F5F5F5F5F5F5F5F5F5F5F5F5F5F5F5F5F5F5F5F5F5F5F5F5F5F5F5F5F5F5F5F5F5F5F5F5F5F5F5F5F5F5F5F5F5F5F5F5F5F5F5F5F5F5F5F5F5F5F5F5F5F5F5F5F5F5F5F5F5F5F5F5F5F5F5F5F5F5F5F5F5F5F5F5F5F5F5F5F5F5F5F5
310
F5F5F5F5F5F5F5F5F5F5F5F5E2F5F5F5F5F5F5F5F5F5F5F5E2E2E2F5F5F5F5F5F5F5F5F5F5F5E2F5F5F5F5F5F5F5F5F5F5F5F5F5F5F5F5F5F5F5F5F5F5F5F5F5F5F5F5F5F5F5F5F5F5F5F5F5F5F5F5F5F5F5F5F5F5F5F5F5F5F5F5F5F5F5F5F5F5F5F5F5F5F5F5F5F5F5F5F5F5F5F5F5F5F5F5F5F5F5F5F5F5F5F5F5F5F5F5
310
F5F5F5F5F5F5F5F5F5F5F5F5F5F5F5F5F5F5F5F5F5F5F5F5F5F5F5F5F5F5F5F5F5F5F5F5F5F5F5F5F5F5F5F5F5F5F5F5F5F5F5F5F5F5F5F5F5F5F5F5F5F5F5F5F5E2F5F5F5F5F5F5F5F5F5F5F5E2E2E2F5F5F5F5F5F5F5F5F5F5F5E2F5F5F5F5F5F5F5F5F5F5F5F5F5F5F5F5F5F5F5F5F5F5F5F5F5F5F5F5F5F5F5F5F5F5F5
310
F5F5F5F5F5F5F5F5F5F5F5F5F5F5F5F5F5F5F5F5F5F5F5F5F5F5F5F5F5F5F5F5F5F5F5F5F5F5F5F5F5F5F5F5F5F5F5F5F5F5F5F5F5F5F5F5F5F5F5F5F5F5F5F5F5F5F5F5F5F5F5F5F5F5F5F5F5F5F5F5F5F5F5F5F5F5F5F5F5F5F5F5F5F5F5F5F5F5F5F5F5F5F5F5F5F5F5F5F5F5F5F5F5F5F5F5F5F5E2F5F5F5F5F5F5F5F5
310
F5F5F5E2E2E2F5F5F5F5F5F5F5F5F5F5F5E2F5F5F5F5F5F5F5F5F5F5F5F5F5F5F5F5F5F5F5F5F5F5F5F5F5F5F5F5F5F5F5F5F5F5F5F5F5F5F5F5F5F5F5F5F5F5F5F5F5F5F5F5F5F5F5F5F5F5F5F5F5F5F5F5F5F5F5F5F5F5F5F5F5F5F5F5F5F5F5F5F5F5F5F5F5F5F5F5F5F5F5F5F5F5F5F5F5F5F5F5F5F5F5F5F5F5F5F5F5
310
F5F5F5F5F5F5F5F5F5F5F5F5F5F5F5F5F5F5F5F5F5F5F5F5F5F5F5F5F5F5F5F5F5F5F5F5F5F5F5F5F5F5F5F5E2F5F5F5F5F5F5F5F5F5F5F5E2E2E2F5F5F5F5F5F5F5F5F5F5F5E2F5F5F5F5F5F5F5F5F5F5F5F5F5F5F5F5F5F5F5F5F5F5F5F5F5F5F5F5F5F5F5F5F5F5F5F5F5F5F5F5F5F5F5F5F5F5F5F5F5F5F5F5F5F5F5F5
310
F5F5F5F5F5F5F5F5F5F5F5F5F5F5F5F5F5F5F5F5F5F5F5F5F5F5F5F5F5F5F5F5F5F5F5F5F5F5F5F5F5F5F5F5F5F5F5F5F5F5F5F5F5F5F5F5F5F5F5F5F5F5F5F5F5F5F5F5F5F5F5F5F5F5F5F5F5F5F5F5F5F5F5F5F5F5F5F5F5F5F5F5F5F5F5F5F5E2F5F5F5F5F5F5F5F5F5F5F5E2E2E2F5F5F5F5F5F5F5F5F5F5F5E2E2E2E2
310
E2E2E2E2E2F5F5F5F5F5F5F5F5F5E2E2E2E2E2E2E2E2E2E2E2E2E2E2E2E2F5F5F5F5F5F5F5F5F5F5E2E2E2E2E2E2E2E2E2E2E2E2E2E2E2E2F5F5F5F5F5F5F5F5F5E2E2E2E2E2E2E2E2E2E2E2E2E2E2E2E2E2F5F5F5F5F5F5F5F5F5E2E2E2E2E2E2E2E2E2E2E2E2E2E2E2E2F5F5F5F5F5F5F5F5F5F5E2E2E2E2E2E2E2E2E2E2
310
E2E2E2E2E2E2F5F5F5F5F5F5F5F5F5E2E2E2E2E2E2E2E2E2F5F5F5F5F5F5F5F5F5F5F5E2E2E2F5F5F5F5F5F5F5F5F5F5F5F5F5F5F5F5F5F5F5F5F5F5F5F5F5F5F5F5F5F5F5F5F5F5F5F5F5F5F5F5F5F5F5F5F5F5F5F5F5F5F5F5F5F5F5F5F5F5F5F5F5F5F5F5F5F5F5F5F5F5F5F5F5F5F5F5F5F5F5F5F5F5F5F5F5F5F5F5F5
310
F5F5F5F5F5F5F5F5F5F5F5F5F5F5F5F5F5F5F5F5F5F5F5F5F5F5F5F5F5F5F5F5F5F5F5F5F5F5F5F5F5F5F5F5F5F5F5F5F5F5F5F5F5F5F5F5F5F5F5F5F5F5F5F5F5F5F5F5F5F5F5F5F5F5F5F5F5F5F5F5F5F5F5F5F5F5F5F5E2E2E2F5F5F5F5F5F5F5F5F5F5F5F5F5F5F5F5F5F5F5F5F5F5F5F5F5F5F5F5F5F5F5F5F5F5F5F5
310
F5F5F5F5F5F5F5F5F5F5F5F5F5F5F5F5F5F5F5F5F5F5F5F5F5F5F5F5F5F5F5F5F5F5F5F5F5F5F5F5F5F5F5F5F5F5F5F5F5F5F5F5F5F5F5F5F5F5F5F5F5F5F5F5F5F5F5F5F5F5F5F5F5F5F5F5F5F5F5F5F5F5F5F5F5F5F5F5F5F5F5F5F5F5F5F5F5F5F5F5F5F5F5F5F5F5F5F5F5F5F5F5F5F5F5F5F5F5F5F5F5F5F5F5F5F5F5
310
F5F5F5F5F5F5F5F5F5F5F5F5F5F5E2E2E2F5F5F5F5F5F5F5F5F5F5F5F5F5F5F5F5F5F5F5F5F5F5F5F5F5F5F5F5F5F5F5F5F5F5F5F5F5F5F5F5F5F5F5F5F5F5F5F5F5F5F5F5F5F5F5F5F5F5F5F5F5F5F5F5F5F5F5F5F5F5F5F5F5F5F5F5F5F5F5F5F5F5F5F5F5F5F5F5F5F5F5F5F5F5F5F5F5F5F5F5F5F5F5F5F5F5F5F5F5F5
310
F5F5F5F5F5F5F5F5F5F5F5F5F5F5F5F5F5F5F5F5F5F5F5F5F5F5F5F5F5F5F5F5F5F5F5F5F5F5F5F5F5F5F5F5F5F5F5F5F5F5F5F5F5F5F5F5F5F5F5F5F5F5F5F5F5F5F5E2E2E2F5F5F5F5F5F5F5F5F5F5F5F5F5F5F5F5F5F5F5F5F5F5F5F5F5F5F5F5F5F5F5F5F5F5F5F5F5F5F5F5F5F5F5F5F5F5F5F5F5F5F5F5F5F5F5F5F5
310
F5F5F5F5F5F5F5F5F5F5F5F5F5F5F5F5F5F5F5F5F5F5F5F5F5F5F5F5F5F5F5F5F5F5F5F5F5F5F5F5F5F5F5F5F5F5F5F5F5F5F5F5F5F5F5F5F5F5F5F5F5F5F5F5F5F5F5F5F5F5F5F5F5F5F5F5F5F5F5F5F5F5F5F5F5F5F5F5F5F5F5F5F5F5F5F5F5F5F5F5F5F5F5F5F5F5F5F5F5F5F5F5F5F5F5F5F5F5F5F5E2EFE2E2E2E2E2
310
E2E2E2E2E2E2E2E2E2E2E2E2E2E2E2E2E2E2E2E2E2E2E2E2E2E2E2E2E2E2E2E2E2E2E2E2E2E2E2E2E2E2E2E2E2E2E2E2E2E2E2E2E2E2E2E2E2E2E2E2E2E2E2E2E2E2E2E2E2E2E2E2E2E2E2E2E2E2E2E2E2E2E2E2E2E2E2E2E2E2E2E2E2E2E2E2E2E2E2E2E2E2E2E2E2E2E2E2E2E2E2E2E2E2E2E2E2E2E2E2E2E2E2E2E2E2E2
310
E2E2E2E2E2E2E2E2E2E2E2E2E2E2E2E2E2E2E2E2E2E2E2E2E2E2E2E2E2E2E2E2E2E2E2E2E2E2E2E2E2E2E2E2E2E2E2EF
  0
XRECORD
  5
5E
102
{ACAD_REACTORS
330
5D
102
}
330
5D
100
AcDbXrecord
280
     1
102
MATERIAL
148
0.0
149
0.0
149
0.0
 93
        0
 94
       63
282
     0
 72
     0
 77
     0
171
     0
175
     0
179
     0
273
     0
  0
XRECORD
  5
5F
102
{ACAD_REACTORS
330
5D
102
}
330
5D
100
AcDbXrecord
280
     1
270
     1
271
     1
  0
XRECORD
  5
60
102
{ACAD_REACTORS
330
5D
102
}
330
5D
100
AcDbXrecord
280
     1
270
     1
271
     1
  0
XRECORD
  5
61
102
{ACAD_REACTORS
330
5D
102
}
330
5D
100
AcDbXrecord
280
     1
270
     1
271
     1
  0
XRECORD
  5
62
102
{ACAD_REACTORS
330
5D
102
}
330
5D
100
AcDbXrecord
280
     1
270
     1
271
     1
  0
XRECORD
  5
63
102
{ACAD_REACTORS
330
5D
102
}
330
5D
100
AcDbXrecord
280
     1
270
     1
271
     1
  0
XRECORD
  5
64
102
{ACAD_REACTORS
330
5D
102
}
330
5D
100
AcDbXrecord
280
     1
270
     1
271
     1
  0
XRECORD
  5
55
102
{ACAD_REACTORS
330
54
102
}
330
54
100
AcDbXrecord
280
     1
102
MATERIAL
148
0.0
149
0.0
149
0.0
 93
        0
 94
       63
282
     0
 72
     0
 77
     0
171
     0
175
     0
179
     0
273
     0
  0
XRECORD
  5
56
102
{ACAD_REACTORS
330
54
102
}
330
54
100
AcDbXrecord
280
     1
270
     1
271
     1
  0
XRECORD
  5
57
102
{ACAD_REACTORS
330
54
102
}
330
54
100
AcDbXrecord
280
     1
270
     1
271
     1
  0
XRECORD
  5
58
102
{ACAD_REACTORS
330
54
102
}
330
54
100
AcDbXrecord
280
     1
270
     1
271
     1
  0
XRECORD
  5
59
102
{ACAD_REACTORS
330
54
102
}
330
54
100
AcDbXrecord
280
     1
270
     1
271
     1
  0
XRECORD
  5
5A
102
{ACAD_REACTORS
330
54
102
}
330
54
100
AcDbXrecord
280
     1
270
     1
271
     1
  0
XRECORD
  5
5B
102
{ACAD_REACTORS
330
54
102
}
330
54
100
AcDbXrecord
280
     1
270
     1
271
     1
  0
XRECORD
  5
F
102
{ACAD_REACTORS
330
E
102
}
330
E
100
AcDbXrecord
280
     1
102
MATERIAL
148
0.0
149
0.0
149
0.0
 93
        0
 94
       63
282
     0
 72
     0
 77
     0
171
     0
175
     0
179
     0
273
     0
  0
XRECORD
  5
10
102
{ACAD_REACTORS
330
E
102
}
330
E
100
AcDbXrecord
280
     1
270
     1
271
     1
  0
XRECORD
  5
11
102
{ACAD_REACTORS
330
E
102
}
330
E
100
AcDbXrecord
280
     1
270
     1
271
     1
  0
XRECORD
  5
12
102
{ACAD_REACTORS
330
E
102
}
330
E
100
AcDbXrecord
280
     1
270
     1
271
     1
  0
XRECORD
  5
13
102
{ACAD_REACTORS
330
E
102
}
330
E
100
AcDbXrecord
280
     1
270
     1
271
     1
  0
XRECORD
  5
14
102
{ACAD_REACTORS
330
E
102
}
330
E
100
AcDbXrecord
280
     1
270
     1
271
     1
  0
XRECORD
  5
15
102
{ACAD_REACTORS
330
E
102
}
330
E
100
AcDbXrecord
280
     1
270
     1
271
     1
  0
ACAD_PROXY_OBJECT
  5
6B
102
{ACAD_REACTORS
330
6A
102
}
330
6A
100
AcDbProxyObject
 90
      499
 91
      519
 95
       23
 70
     0
 93
     4020
310
40D054060020000020000003200101A412A5058000000C100000000000000340FE419019018000000C1003FBFFFFFE02B5E8DC0F42A9CFD029018000000C1003FBFFFFFE02B5E8DC0F42A9CFD049018000000C1003FBFFFFFE02B5E8DC0F42A9CFD089018000000C1003FBFFFFFE02B5E8DC0F42A9CFD109018000000C1003
310
FBFFFFFE02B5E8DC0F42A9CFD209018000000C1003FBFFFFFE02B5E8DC0F42A9CFD01405075F5449544C450041501A8000000C800406904A9416000000304000AD7A3703D0AC73F90640640600000030400FEFFFFFF80AD7A3703D0AA73F40A40600000030400FEFFFFFF80AD7A3703D0AA73F41240600000030400FEFFFFF
310
F80AD7A3703D0AA73F42240600000030400FEFFFFFF80AD7A3703D0AA73F44240600000030400FEFFFFFF80AD7A3703D0AA73F48240600000030400FEFFFFFF80AD7A3703D0AA73F409014217D2115051115480105406A0000003200101A412A5028000000C10002B5E8DC0F42B1CFE419019018000000C1003FBFFFFFE02B
310
5E8DC0F42A9CFD029018000000C1003FBFFFFFE02B5E8DC0F42A9CFD049018000000C1003FBFFFFFE02B5E8DC0F42A9CFD089018000000C1003FBFFFFFE02B5E8DC0F42A9CFD109018000000C1003FBFFFFFE02B5E8DC0F42A9CFD209018000000C1003FBFFFFFE02B5E8DC0F42A9CFD03409065F4441544100C
340
28
340
0
340
0
340
0
340
0
340
0
340
0
340
28
340
0
340
0
340
0
340
0
340
0
340
0
340
28
340
0
340
0
340
0
340
0
340
0
340
0
 94
        0
1001
ACAD
1000
AcRTDxfName
1000
CELLSTYLEMAP
1000
AcRTDxfName
1000
CELLSTYLEMAP
1000
AcRTDxfName
1000
CELLSTYLEMAP
1000
AcRTDxfName
1000
CELLSTYLEMAP
1000
AcRTDxfName
1000
CELLSTYLEMAP
1000
AcRTDxfName
1000
CELLSTYLEMAP
1000
AcRTDxfName
1000
CELLSTYLEMAP
1000
AcRTDxfName
1000
CELLSTYLEMAP
1000
AcRTDxfName
1000
CELLSTYLEMAP
1000
AcRTDxfName
1000
CELLSTYLEMAP
1000
AcRTDxfName
1000
CELLSTYLEMAP
1000
AcRTDxfName
1000
CELLSTYLEMAP
1000
AcRTDxfName
1000
CELLSTYLEMAP
1000
AcRTDxfName
1000
CELLSTYLEMAP
1000
AcRTDxfName
1000
CELLSTYLEMAP
1000
AcRTDxfName
1000
CELLSTYLEMAP
1000
AcRTDxfName
1000
CELLSTYLEMAP
1000
AcRTDxfName
1000
CELLSTYLEMAP
1000
AcRTDxfName
1000
CELLSTYLEMAP
1000
AcRTDxfName
1000
CELLSTYLEMAP
1000
AcRTDxfName
1000
CELLSTYLEMAP
1000
AcRTDxfName
1000
CELLSTYLEMAP
1000
AcRTDxfName
1000
CELLSTYLEMAP
1000
AcRTDxfName
1000
CELLSTYLEMAP
1000
AcRTDxfName
1000
CELLSTYLEMAP
1000
AcRTDxfName
1000
CELLSTYLEMAP
1000
AcRTDxfName
1000
CELLSTYLEMAP
1000
AcRTDxfName
1000
CELLSTYLEMAP
1000
AcRTDxfName
1000
CELLSTYLEMAP
1000
AcRTDxfName
1000
CELLSTYLEMAP
1000
AcRTDxfName
1000
CELLSTYLEMAP
1000
AcRTDxfName
1000
CELLSTYLEMAP
1000
AcRTDxfName
1000
CELLSTYLEMAP
1000
AcRTDxfName
1000
CELLSTYLEMAP
1000
AcRTDxfName
1000
CELLSTYLEMAP
1000
AcRTDxfName
1000
CELLSTYLEMAP
1000
AcRTDxfName
1000
CELLSTYLEMAP
1000
AcRTDxfName
1000
CELLSTYLEMAP
1000
AcRTDxfName
1000
CELLSTYLEMAP
1000
AcRTDxfName
1000
CELLSTYLEMAP
1000
AcRTDxfName
1000
CELLSTYLEMAP
1000
AcRTDxfName
1000
CELLSTYLEMAP
1000
AcRTDxfName
1000
CELLSTYLEMAP
1000
AcRTDxfName
1000
CELLSTYLEMAP
1000
AcRTDxfName
1000
CELLSTYLEMAP
1000
AcRTDxfName
1000
CELLSTYLEMAP
1000
AcRTDxfName
1000
CELLSTYLEMAP
1000
AcRTDxfName
1000
CELLSTYLEMAP
1000
AcRTDxfName
1000
CELLSTYLEMAP
1000
AcRTDxfName
1000
CELLSTYLEMAP
1000
AcRTDxfName
1000
CELLSTYLEMAP
1000
AcRTDxfName
1000
CELLSTYLEMAP
1000
AcRTDxfName
1000
CELLSTYLEMAP
1000
AcRTDxfName
1000
CELLSTYLEMAP
1000
AcRTDxfName
1000
CELLSTYLEMAP
1000
AcRTDxfName
1000
CELLSTYLEMAP
1000
AcRTDxfName
1000
CELLSTYLEMAP
1000
AcRTDxfName
1000
CELLSTYLEMAP
1000
AcRTDxfName
1000
CELLSTYLEMAP
1000
AcRTDxfName
1000
CELLSTYLEMAP
1000
AcRTDxfName
1000
CELLSTYLEMAP
1000
AcRTDxfName
1000
CELLSTYLEMAP
1000
AcRTDxfName
1000
CELLSTYLEMAP
1000
AcRTDxfName
1000
CELLSTYLEMAP
1000
AcRTDxfName
1000
CELLSTYLEMAP
1000
AcRTDxfName
1000
CELLSTYLEMAP
1000
AcRTDxfName
1000
CELLSTYLEMAP
1000
AcRTDxfName
1000
CELLSTYLEMAP
1000
AcRTDxfName
1000
CELLSTYLEMAP
1000
AcRTDxfName
1000
CELLSTYLEMAP
1000
AcRTDxfName
1000
CELLSTYLEMAP
1000
AcRTDxfName
1000
CELLSTYLEMAP
1000
AcRTDxfName
1000
CELLSTYLEMAP
1000
AcRTDxfName
1000
CELLSTYLEMAP
1000
AcRTDxfName
1000
CELLSTYLEMAP
1000
AcRTDxfName
1000
CELLSTYLEMAP
1000
AcRTDxfName
1000
CELLSTYLEMAP
1000
AcRTDxfName
1000
CELLSTYLEMAP
1000
AcRTDxfName
1000
CELLSTYLEMAP
1000
AcRTDxfName
1000
CELLSTYLEMAP
1000
AcRTDxfName
1000
CELLSTYLEMAP
1000
AcRTDxfName
1000
CELLSTYLEMAP
1000
AcRTDxfName
1000
CELLSTYLEMAP
1000
AcRTDxfName
1000
CELLSTYLEMAP
1000
AcRTDxfName
1000
CELLSTYLEMAP
1000
AcRTDxfName
1000
CELLSTYLEMAP
1000
AcRTDxfName
1000
CELLSTYLEMAP
1000
AcRTDxfName
1000
CELLSTYLEMAP
1000
AcRTDxfName
1000
CELLSTYLEMAP
1000
AcRTDxfName
1000
CELLSTYLEMAP
1000
AcRTDxfName
1000
CELLSTYLEMAP
1000
AcRTDxfName
1000
CELLSTYLEMAP
1000
AcRTDxfName
1000
CELLSTYLEMAP
1000
AcRTDxfName
1000
CELLSTYLEMAP
1000
AcRTDxfName
1000
CELLSTYLEMAP
1000
AcRTDxfName
1000
CELLSTYLEMAP
1000
AcRTDxfName
1000
CELLSTYLEMAP
1000
AcRTDxfName
1000
CELLSTYLEMAP
1000
AcRTDxfName
1000
CELLSTYLEMAP
1000
AcRTDxfName
1000
CELLSTYLEMAP
1000
AcRTDxfName
1000
CELLSTYLEMAP
1000
AcRTDxfName
1000
CELLSTYLEMAP
1000
AcRTDxfName
1000
CELLSTYLEMAP
1000
AcRTDxfName
1000
CELLSTYLEMAP
1000
AcRTDxfName
1000
CELLSTYLEMAP
1000
AcRTDxfName
1000
CELLSTYLEMAP
1000
AcRTDxfName
1000
CELLSTYLEMAP
1000
AcRTDxfName
1000
CELLSTYLEMAP
1000
AcRTDxfName
1000
CELLSTYLEMAP
1000
AcRTDxfName
1000
CELLSTYLEMAP
1000
AcRTDxfName
1000
CELLSTYLEMAP
1000
AcRTDxfName
1000
CELLSTYLEMAP
1000
AcRTDxfName
1000
CELLSTYLEMAP
1000
AcRTDxfName
1000
CELLSTYLEMAP
1000
AcRTDxfName
1000
CELLSTYLEMAP
1000
AcRTDxfName
1000
CELLSTYLEMAP
1000
AcRTDxfName
1000
CELLSTYLEMAP
1000
AcRTDxfName
1000
CELLSTYLEMAP
1000
AcRTDxfName
1000
CELLSTYLEMAP
1000
AcRTDxfName
1000
CELLSTYLEMAP
1000
AcRTDxfName
1000
CELLSTYLEMAP
1000
AcRTDxfName
1000
CELLSTYLEMAP
  0
XRECORD
  5
449
102
{ACAD_REACTORS
330
6A
102
}
330
6A
100
AcDbXrecord
280
     1
102
ACAD_ROUNDTRIP_PRE2007_TABLESTYLE
 90
        4
 91
        0
  1

 92
        4
 93
        0
  2

 94
        4
 95
        0
  3

  0
XRECORD
  5
34
102
{ACAD_REACTORS
330
33
102
}
330
33
100
AcDbXrecord
280
     1
102
RTVSPropertyOp0
 70
     1
102
RTVSPropertyOp1
 70
     1
102
RTVSPropertyOp2
 70
     1
102
RTVSPropertyOp3
 70
     1
102
RTVSPropertyOp4
 70
     1
102
RTVSPropertyOp5
 70
     1
102
RTVSPropertyOp6
 70
     1
102
RTVSPropertyOp7
 70
     1
102
RTVSPropertyOp8
 70
     1
102
RTVSPropertyOp9
 70
     1
102
RTVSPropertyOp10
 70
     1
102
RTVSPropertyOp11
 70
     1
102
RTVSPropertyOp12
 70
     1
102
RTVSPropertyOp13
 70
     1
102
RTVSPropertyOp14
 70
     1
102
RTVSPropertyOp15
 70
     1
102
RTVSPropertyOp16
 70
     1
102
RTVSPropertyOp17
 70
     1
102
RTVSPropertyOp18
 70
     1
102
RTVSPropertyOp19
 70
     1
102
RTVSPropertyOp20
 70
     1
102
RTVSPropertyOp21
 70
     1
102
RTVSPropertyOp22
 70
     1
102
RTVSPropertyOp23
 70
     1
102
RTVSPropertyOp24
 70
     1
102
RTVSPropertyOp25
 70
     1
102
RTVSPropertyOp26
 70
     1
102
RTVSPropertyOp27
 70
     1
  0
XRECORD
  5
71
102
{ACAD_REACTORS
330
70
102
}
330
70
100
AcDbXrecord
280
     1
102
RTVSPropertyOp0
 70
     1
102
RTVSPropertyOp1
 70
     1
102
RTVSPropertyOp2
 70
     1
102
RTVSPropertyOp3
 70
     1
102
RTVSPropertyOp4
 70
     1
102
RTVSPropertyOp5
 70
     1
102
RTVSPropertyOp6
 70
     1
102
RTVSPropertyOp7
 70
     1
102
RTVSPropertyOp8
 70
     1
102
RTVSPropertyOp9
 70
     1
102
RTVSPropertyOp10
 70
     1
102
RTVSPropertyOp11
 70
     1
102
RTVSPropertyOp12
 70
     1
102
RTVSPropertyOp13
 70
     1
102
RTVSPropertyOp14
 70
     1
102
RTVSPropertyOp15
 70
     1
102
RTVSPropertyOp16
 70
     1
102
RTVSPropertyOp17
 70
     1
102
RTVSPropertyOp18
 70
     1
102
RTVSPropertyOp19
 70
     1
102
RTVSPropertyOp20
 70
     1
102
RTVSPropertyOp21
 70
     1
102
RTVSPropertyOp22
 70
     1
102
RTVSPropertyOp23
 70
     1
102
RTVSPropertyOp24
 70
     1
102
RTVSPropertyOp25
 70
     1
102
RTVSPropertyOp26
 70
     1
102
RTVSPropertyOp27
 70
     1
  0
XRECORD
  5
6E
102
{ACAD_REACTORS
330
6D
102
}
330
6D
100
AcDbXrecord
280
     1
102
RTVSPropertyOp0
 70
     1
102
RTVSPropertyOp1
 70
     1
102
RTVSPropertyOp2
 70
     1
102
RTVSPropertyOp3
 70
     1
102
RTVSPropertyOp4
 70
     1
102
RTVSPropertyOp5
 70
     1
102
RTVSPropertyOp6
 70
     1
102
RTVSPropertyOp7
 70
     1
102
RTVSPropertyOp8
 70
     1
102
RTVSPropertyOp9
 70
     1
102
RTVSPropertyOp10
 70
     1
102
RTVSPropertyOp11
 70
     1
102
RTVSPropertyOp12
 70
     1
102
RTVSPropertyOp13
 70
     1
102
RTVSPropertyOp14
 70
     1
102
RTVSPropertyOp15
 70
     1
102
RTVSPropertyOp16
 70
     1
102
RTVSPropertyOp17
 70
     1
102
RTVSPropertyOp18
 70
     1
102
RTVSPropertyOp19
 70
     1
102
RTVSPropertyOp20
 70
     1
102
RTVSPropertyOp21
 70
     1
102
RTVSPropertyOp22
 70
     1
102
RTVSPropertyOp23
 70
     1
102
RTVSPropertyOp24
 70
     1
102
RTVSPropertyOp25
 70
     1
102
RTVSPropertyOp26
 70
     1
102
RTVSPropertyOp27
 70
     1
  0
ENDSEC
  0
EOF
